<?xml version="1.0" standalone="no"?>
<!DOCTYPE svg PUBLIC "-//W3C//DTD SVG 1.1//EN" "http://www.w3.org/Graphics/SVG/1.1/DTD/svg11.dtd" >
<svg>
<metadata>
Created by FontForge 20120731 at Sat Jun 29 13:19:29 2019
 By www
Copyright (c) 2013 by Nico Inosanto. All rights reserved.
</metadata>
<defs>
<font id="RadikalW03-Regular" horiz-adv-x="575" >
  <font-face 
    font-family="RadikalW03-Regular"
    font-weight="400"
    font-stretch="normal"
    units-per-em="1000"
    panose-1="1 0 0 0 0 0 0 0 0 0"
    ascent="800"
    descent="-200"
    x-height="502"
    cap-height="735"
    bbox="-162 -297 1240 1075"
    underline-thickness="50"
    underline-position="-75"
    unicode-range="U+0020-FB01"
  />
<missing-glyph horiz-adv-x="592" 
d="M529 699v-699h-466v699h466zM132 650l163 -259l163 259h-326zM322 346l158 -250v499zM135 50h318l-158 250zM112 101l154 245l-154 244v-489z" />
    <glyph glyph-name="uniFB01" unicode="fi" horiz-adv-x="610" 
d="M281 760q28 0 49.5 -5.5t38.5 -15.5l-28 -82q-10 8 -23 12t-33 4q-37 0 -58 -25.5t-21 -67.5v-78h131v-84h-131v-418h-98v418h-90v84h90v75q0 39 12 72.5t34.5 58t54.5 38.5t72 14zM532 0h-98v502h98v-502zM484 728q27 0 45.5 -18.5t18.5 -45.5q0 -28 -18.5 -46
t-45.5 -18q-28 0 -46 18t-18 46q0 27 18 45.5t46 18.5z" />
    <glyph glyph-name="f_j.liga" unicode="fj" horiz-adv-x="610" 
d="M281 760q28 0 49.5 -5.5t38.5 -15.5l-28 -82q-10 8 -23 12t-33 4q-37 0 -58 -25.5t-21 -67.5v-78h131v-84h-131v-418h-98v418h-90v84h90v75q0 39 12 72.5t34.5 58t54.5 38.5t72 14zM532 -57q0 -39 -13.5 -72.5t-38.5 -58t-59 -38.5t-74 -14q-48 0 -85.5 16.5t-66.5 45.5
l64 66q15 -17 36 -29t50 -12q40 0 64.5 24.5t24.5 64.5v566h98v-559zM484 728q27 0 45.5 -18.5t18.5 -45.5q0 -28 -18.5 -46t-45.5 -18q-28 0 -46 18t-18 46q0 27 18 45.5t46 18.5z" />
    <glyph glyph-name=".notdef" horiz-adv-x="592" 
d="M529 699v-699h-466v699h466zM132 650l163 -259l163 259h-326zM322 346l158 -250v499zM135 50h318l-158 250zM112 101l154 245l-154 244v-489z" />
    <glyph glyph-name="glyph1" horiz-adv-x="0" 
 />
    <glyph glyph-name="glyph2" horiz-adv-x="250" 
 />
    <glyph glyph-name="space" unicode=" " horiz-adv-x="236" 
 />
    <glyph glyph-name="exclam" unicode="!" horiz-adv-x="262" 
d="M180 205h-98v530h98v-530zM131 115q28 0 46.5 -18.5t18.5 -45.5q0 -28 -18.5 -46t-46.5 -18q-27 0 -45 18t-18 46q0 27 18 45.5t45 18.5z" />
    <glyph glyph-name="quotedbl" unicode="&#x22;" horiz-adv-x="317" 
d="M142 733l-44 -263h-39l-9 280zM300 733l-44 -263h-39l-9 280z" />
    <glyph glyph-name="numbersign" unicode="#" horiz-adv-x="707" 
d="M557 534h132v-80h-146l-32 -179h131v-81h-144l-34 -194h-98l34 194h-168l-34 -194h-99l35 194h-133v81h147l32 179h-132v80h145l36 201h97l-35 -201h168l36 201h98zM277 454l-31 -179h168l32 179h-169z" />
    <glyph glyph-name="dollar" unicode="$" horiz-adv-x="581" 
d="M340 745q56 -8 102.5 -27.5t81.5 -47.5l-54 -84q-35 29 -81.5 48.5t-104.5 19.5q-60 0 -99 -27.5t-39 -87.5q0 -24 8.5 -41.5t28 -31t51 -23.5t78.5 -20q67 -15 113.5 -34t76 -44.5t42.5 -59t13 -75.5q0 -45 -15 -83t-43 -66.5t-68.5 -46.5t-90.5 -24v-119h-83v118
q-69 5 -127 28.5t-104 63.5l57 85q39 -39 97 -62t118 -23q69 0 113 30.5t44 90.5q0 24 -9.5 42.5t-30 33t-53.5 25.5t-79 21q-67 15 -113 34t-74 44.5t-40 58.5t-12 74q0 91 57.5 147.5t155.5 64.5v122h83v-124z" />
    <glyph glyph-name="percent" unicode="%" horiz-adv-x="872" 
d="M245 0h-97l479 735h97zM208 748q38 0 70.5 -14t56.5 -39t37.5 -59t13.5 -74t-13.5 -73.5t-37.5 -58t-56.5 -38t-70.5 -13.5q-39 0 -72 13.5t-56.5 38t-37 58t-13.5 73.5t13.5 74t37 59t56.5 39t72 14zM208 675q-45 0 -74 -31.5t-29 -81.5q0 -48 29 -79.5t74 -31.5
t73.5 31.5t28.5 79.5q0 50 -28.5 81.5t-73.5 31.5zM665 356q39 0 71.5 -14t56.5 -38.5t37.5 -58.5t13.5 -74t-13.5 -73.5t-37.5 -58t-56.5 -38t-71.5 -13.5t-72 13.5t-56.5 38t-37 58t-13.5 73.5t13.5 74t37 58.5t56.5 38.5t72 14zM665 284q-45 0 -74 -32t-29 -81
q0 -48 29 -79.5t74 -31.5q22 0 41 8.5t32.5 23t21.5 35t8 44.5q0 49 -29 81t-74 32z" />
    <glyph glyph-name="ampersand" unicode="&#x26;" horiz-adv-x="686" 
d="M288 748q80 0 127.5 -44t47.5 -115q0 -33 -11.5 -58.5t-30.5 -46.5t-44.5 -39.5t-53.5 -36.5l16 -18l140 -156l91 111h116l-145 -180l149 -165h-127l-83 93q-44 -45 -97.5 -74t-126.5 -29q-46 0 -87.5 13.5t-72.5 39.5t-49 64t-18 86q0 39 10.5 69t31 55.5t51 48.5
t70.5 49q-33 39 -55.5 80.5t-22.5 91.5q0 36 12.5 65.5t35 51t54.5 33t72 11.5zM272 328q-7 7 -13 14t-13 15q-28 -19 -49.5 -36t-36.5 -35t-23 -39t-8 -48q0 -29 10 -51.5t28 -38t42 -24t52 -8.5q50 0 88 25t70 60zM207 583q0 -33 17.5 -61.5t43.5 -57.5q52 32 77 57.5
t25 63.5t-22 59.5t-59 21.5t-59.5 -21.5t-22.5 -61.5z" />
    <glyph glyph-name="quotesingle" unicode="'" horiz-adv-x="159" 
d="M142 733l-44 -263h-39l-9 280z" />
    <glyph glyph-name="parenleft" unicode="(" horiz-adv-x="291" 
d="M271 643q-24 -29 -47.5 -63.5t-42 -77.5t-30 -95.5t-11.5 -117.5t11.5 -117.5t30 -95.5t42 -77.5t47.5 -63.5l-74 -54q-26 31 -53 71.5t-48.5 90.5t-35 111t-13.5 135q0 73 13.5 134t35 111.5t48.5 90.5t53 72z" />
    <glyph glyph-name="parenright" unicode=")" horiz-adv-x="291" 
d="M94 697q27 -32 53.5 -72t48 -90.5t35 -111.5t13.5 -134q0 -74 -13.5 -135t-35 -111t-48 -90.5t-53.5 -71.5l-74 54q24 29 47.5 63.5t42 77.5t30 95.5t11.5 117.5t-11.5 117.5t-30 95.5t-42 77.5t-47.5 63.5l74 54v0z" />
    <glyph glyph-name="asterisk" unicode="*" horiz-adv-x="412" 
d="M238 601l125 45l23 -67l-128 -38l81 -105l-58 -41l-74 105l-75 -105l-57 41l81 105l-129 38l22 67l126 -45l-4 133h71z" />
    <glyph glyph-name="plus" unicode="+" horiz-adv-x="486" 
d="M287 395h159v-90h-159v-159h-90v159h-158v90h158v158h90v-158z" />
    <glyph glyph-name="comma" unicode="," horiz-adv-x="185" 
d="M75 127q30 0 49.5 -20t19.5 -50q0 -12 -3.5 -22t-8.5 -18l-78 -159h-4v264q13 5 25 5z" />
    <glyph glyph-name="hyphen" unicode="-" horiz-adv-x="437" 
d="M396 213h-356v91h356v-91z" />
    <glyph glyph-name="period" unicode="." horiz-adv-x="214" 
d="M107 128q30 0 49.5 -19t19.5 -50q0 -30 -19.5 -49.5t-49.5 -19.5t-49.5 19.5t-19.5 49.5t19.5 49.5t49.5 19.5z" />
    <glyph glyph-name="slash" unicode="/" horiz-adv-x="474" 
d="M106 0h-101l365 734h99z" />
    <glyph glyph-name="zero" unicode="0" horiz-adv-x="589" 
d="M295 748q61 0 109 -27t81 -76.5t50 -119.5t17 -157t-17 -157.5t-50 -120t-81 -76.5t-109 -27q-62 0 -110 27t-81 76.5t-50 120t-17 157.5t17 157t50 119.5t81 76.5t110 27zM295 659q-40 0 -69.5 -20.5t-49 -59t-29 -92t-9.5 -119.5t9.5 -120t29 -92.5t49 -59t69.5 -20.5
q39 0 68.5 20.5t49 59t29 92.5t9.5 120t-9.5 119.5t-29 92t-49 59t-68.5 20.5z" />
    <glyph glyph-name="one" unicode="1" horiz-adv-x="374" 
d="M294 0h-99v565l-131 -77l-44 87l270 173h4v-748z" />
    <glyph glyph-name="two" unicode="2" horiz-adv-x="530" 
d="M264 748q50 0 91 -16t70.5 -45t46 -69.5t16.5 -88.5q0 -68 -22 -120t-66 -108l-164 -211h261v-90h-451v6l272 348q20 25 33.5 46.5t21.5 42t11.5 42t3.5 46.5q0 60 -35 93.5t-89 33.5q-56 0 -87.5 -30t-43.5 -93l-90 21q19 95 74.5 143.5t146.5 48.5z" />
    <glyph glyph-name="three" unicode="3" horiz-adv-x="524" 
d="M264 748q48 0 87.5 -15.5t68 -43.5t44.5 -66t16 -84q0 -62 -28 -99t-71 -57q56 -21 89 -65t33 -108q0 -50 -16.5 -91t-46.5 -70.5t-73 -45.5t-95 -16q-98 0 -154.5 47.5t-83.5 134.5l90 24q17 -54 51 -85t97 -31q59 0 95.5 36t36.5 97q0 28 -10.5 51.5t-29.5 40.5
t-45.5 27t-57.5 10h-80v87h82q23 0 44 7t37.5 21.5t26.5 35.5t10 50q0 55 -33.5 86.5t-84.5 31.5t-82.5 -27.5t-47.5 -77.5l-87 37q25 70 78 114t140 44z" />
    <glyph glyph-name="four" unicode="4" horiz-adv-x="557" 
d="M437 228h99v-90h-99v-138h-99v138h-331v4l425 599h5v-513zM176 227h163v230z" />
    <glyph glyph-name="five" unicode="5" horiz-adv-x="538" 
d="M463 645h-285v-212q18 9 42 15.5t55 6.5q51 0 94 -16t74 -46.5t48.5 -74.5t17.5 -99q0 -49 -16 -91.5t-46.5 -73.5t-73.5 -49t-97 -18q-94 0 -150 41.5t-85 117.5l85 40q17 -51 50.5 -80t93.5 -29q31 0 56.5 11t44 30.5t28.5 46t10 58.5q0 64 -38 103t-100 39
q-45 0 -76 -13.5t-54 -31.5l-63 30v385h385v-90z" />
    <glyph glyph-name="six" unicode="6" horiz-adv-x="547" 
d="M272 471q50 0 94 -18t77 -50.5t52 -77t19 -97.5t-19 -97t-52 -76t-77 -50t-94 -18t-93.5 18t-76 50t-51.5 76t-19 97q0 45 13.5 84t38.5 70l231 353h112l-173 -265q5 1 9 1h9zM272 382q-29 0 -54.5 -11.5t-44.5 -31.5t-29.5 -48.5t-10.5 -62.5t10.5 -62t29.5 -48
t44.5 -31t54.5 -11q30 0 55.5 11t45 31t30.5 48t11 62t-11 62.5t-30.5 48.5t-45 31.5t-55.5 11.5z" />
    <glyph glyph-name="seven" unicode="7" horiz-adv-x="538" 
d="M524 729l-370 -729h-108l331 644h-350v91h497v-6z" />
    <glyph glyph-name="eight" unicode="8" horiz-adv-x="547" 
d="M270 748q43 0 81.5 -14.5t67 -41t45 -63t16.5 -79.5q0 -54 -25 -95.5t-66 -64.5q54 -26 88.5 -73.5t34.5 -108.5q0 -48 -19.5 -89t-52.5 -70t-77 -45.5t-93 -16.5q-50 0 -93.5 16.5t-76.5 45.5t-52 70t-19 89q0 61 33.5 109t87.5 72q-41 23 -65.5 65t-24.5 96
q0 43 16.5 79.5t45 63t67 41t81.5 14.5zM270 339q-29 0 -54.5 -10t-44.5 -28t-30 -42.5t-11 -52.5t11 -52t30 -41.5t44.5 -27.5t54.5 -10t55 10t45 27.5t30 41.5t11 52t-11 52.5t-30 42.5t-45 28t-55 10zM270 660q-24 0 -45.5 -8.5t-37.5 -24t-25 -36.5t-9 -45q0 -26 9 -48
t25 -37.5t37.5 -24.5t45.5 -9t45.5 9t37.5 24.5t25 37.5t9 48q0 24 -9 45t-25 36.5t-37.5 24t-45.5 8.5z" />
    <glyph glyph-name="nine" unicode="9" horiz-adv-x="547" 
d="M274 748q49 0 93 -18t76.5 -50t51.5 -76t19 -97q0 -42 -11.5 -78t-32.5 -65l-238 -364h-113l173 264h-18q-50 0 -94 18t-77 50.5t-52 77t-19 97.5t19 97t52 76t77 50t94 18zM274 659q-30 0 -55.5 -11t-44.5 -31t-30 -48t-11 -62t11 -62.5t30 -48.5t44.5 -31.5t55.5 -11.5
q29 0 54.5 11.5t44.5 31.5t30 48.5t11 62.5t-11 62t-30 48t-44.5 31t-54.5 11z" />
    <glyph glyph-name="colon" unicode=":" horiz-adv-x="207" 
d="M104 122q29 0 47.5 -18.5t18.5 -47.5t-18.5 -47.5t-47.5 -18.5t-47.5 18.5t-18.5 47.5t18.5 47.5t47.5 18.5zM104 512q29 0 47.5 -18.5t18.5 -47.5t-18.5 -47.5t-47.5 -18.5t-47.5 18.5t-18.5 47.5t18.5 47.5t47.5 18.5z" />
    <glyph glyph-name="semicolon" unicode=";" horiz-adv-x="207" 
d="M82 122q30 0 49.5 -19.5t19.5 -49.5q0 -12 -3.5 -22t-8.5 -19l-78 -159h-4v265q11 4 25 4zM104 512q29 0 47.5 -18.5t18.5 -47.5t-18.5 -47.5t-47.5 -18.5t-47.5 18.5t-18.5 47.5t18.5 47.5t47.5 18.5z" />
    <glyph glyph-name="less" unicode="&#x3c;" horiz-adv-x="354" 
d="M141 346l193 -192h-124l-190 190v4l190 190h124z" />
    <glyph glyph-name="equal" unicode="=" horiz-adv-x="486" 
d="M446 185h-407v90h407v-90zM446 423h-407v91h407v-91z" />
    <glyph glyph-name="greater" unicode="&#x3e;" horiz-adv-x="354" 
d="M334 348v-4l-190 -190h-124l192 192l-192 192h124z" />
    <glyph glyph-name="question" unicode="?" horiz-adv-x="491" 
d="M238 748q48 0 87.5 -15t68 -42t44.5 -64t16 -80t-12.5 -73t-30.5 -52.5t-40 -40.5t-40 -36t-30.5 -39.5t-12.5 -51.5v-49h-99v61q0 37 12 63.5t30 47.5t39 38t39 36t30 41.5t12 53.5q0 54 -33 83t-81 29q-51 0 -80.5 -26.5t-39.5 -77.5l-97 17q18 84 71.5 130.5
t146.5 46.5zM239 115q28 0 46 -18.5t18 -45.5q0 -28 -18 -46t-46 -18t-46 18t-18 46q0 27 18 45.5t46 18.5z" />
    <glyph glyph-name="at" unicode="@" horiz-adv-x="859" 
d="M429 637q88 0 161.5 -28.5t126.5 -80t82 -123.5t29 -158q0 -50 -11.5 -91t-33 -70.5t-53.5 -46t-73 -16.5q-42 0 -66.5 17t-35.5 43l-2 5q-20 -26 -55.5 -45.5t-89.5 -19.5q-42 0 -77 16.5t-60 45.5t-39 68.5t-14 86.5t14 87t39 69t60 45.5t77 16.5q54 0 86.5 -16.5
t51.5 -40.5l3 49h76v-310q0 -44 41 -44q40 0 61.5 42t21.5 109q0 69 -23 126.5t-65 99.5t-101 65.5t-131 23.5q-71 0 -129.5 -24t-100.5 -67t-65.5 -101.5t-23.5 -127.5q0 -70 23 -128.5t64.5 -101t99.5 -66t127 -23.5t129 24l23 -71q-70 -28 -152 -28q-87 0 -159 29
t-124 81.5t-81 124.5t-29 159q0 86 29.5 158.5t82 125t125.5 82t161 29.5zM427 385q-55 0 -90 -39.5t-35 -105.5t35 -105t90 -39q42 0 69 19t46 46v159q-18 25 -45.5 45t-69.5 20z" />
    <glyph glyph-name="A" unicode="A" horiz-adv-x="698" 
d="M222 239h254l-127 284zM689 0h-109l-66 150h-330l-66 -150h-109l338 748h4z" />
    <glyph glyph-name="B" unicode="B" horiz-adv-x="663" 
d="M342 735q113 0 171 -52t58 -142q0 -30 -7.5 -55t-20 -43.5t-28 -32t-31.5 -21.5q31 -8 58 -22.5t47 -36.5t31.5 -53t11.5 -71q0 -49 -18 -87.5t-50 -64.5t-76 -40t-97 -14h-309v735h260zM183 329v-236h197q69 0 109 30t40 88q0 57 -39.5 87.5t-120.5 30.5h-186zM183 642
v-222h156q62 0 96 31.5t34 79.5q0 52 -35 81.5t-104 29.5h-147z" />
    <glyph glyph-name="C" unicode="C" horiz-adv-x="680" 
d="M403 748q83 0 146 -27.5t114 -79.5l-65 -74q-35 38 -84 62.5t-111 24.5q-60 0 -109 -21.5t-84 -60t-54.5 -91t-19.5 -114.5t19.5 -114.5t54.5 -90.5t84 -59.5t109 -21.5q64 0 114.5 25.5t85.5 66.5l64 -76q-52 -57 -118 -83.5t-146 -26.5q-81 0 -149 28.5t-117 79.5
t-76.5 120.5t-27.5 151.5t27.5 152t76.5 121t117 79.5t149 28.5z" />
    <glyph glyph-name="D" unicode="D" horiz-adv-x="732" 
d="M304 735q93 0 166.5 -24.5t124 -72t77.5 -115.5t27 -155t-26.5 -155.5t-77 -115.5t-124 -72t-167.5 -25h-222v735h222zM184 640v-546h117q144 0 219.5 71.5t75.5 202.5q0 130 -76 201t-219 71h-117z" />
    <glyph glyph-name="E" unicode="E" horiz-adv-x="577" 
d="M537 641h-353v-223h310v-91h-310v-233h361v-94h-463v735h455v-94z" />
    <glyph glyph-name="F" unicode="F" horiz-adv-x="539" 
d="M522 641h-338v-233h286v-92h-286v-316h-102v735h440v-94z" />
    <glyph glyph-name="G" unicode="G" horiz-adv-x="740" 
d="M403 748q83 0 146 -27.5t114 -79.5l-65 -74q-35 38 -84 62.5t-111 24.5q-60 0 -109 -21.5t-84 -60t-54.5 -91t-19.5 -114.5t20 -114.5t56.5 -90.5t87.5 -59.5t113 -21.5q50 0 91.5 14t74.5 38v165h-187v89h289v-304q-104 -96 -268 -96q-83 0 -153 28.5t-120.5 79.5
t-78.5 120.5t-28 151.5t27.5 152t76.5 121t117 79.5t149 28.5z" />
    <glyph glyph-name="H" unicode="H" horiz-adv-x="733" 
d="M651 0h-102v329h-365v-329h-102v735h102v-312h365v312h102v-735z" />
    <glyph glyph-name="I" unicode="I" horiz-adv-x="266" 
d="M184 0h-102v735h102v-735z" />
    <glyph glyph-name="J" unicode="J" horiz-adv-x="540" 
d="M469 210q0 -51 -16.5 -92t-45.5 -70.5t-70.5 -45t-90.5 -15.5q-45 0 -86 15.5t-72 46t-49.5 75t-18.5 102.5h100q0 -69 33 -107t90 -38q58 0 91 35.5t33 98.5v520h102v-525z" />
    <glyph glyph-name="K" unicode="K" horiz-adv-x="667" 
d="M394 381l264 -381h-123l-199 289l-175 -289h-79v735h102v-529l301 529h120z" />
    <glyph glyph-name="L" unicode="L" horiz-adv-x="544" 
d="M184 91h350v-91h-452v735h102v-644z" />
    <glyph glyph-name="M" unicode="M" horiz-adv-x="873" 
d="M790 0h-102v405l-248 -411h-7l-249 411v-405h-102v748h4l350 -571l350 571h4v-748z" />
    <glyph glyph-name="N" unicode="N" horiz-adv-x="729" 
d="M647 -13h-4l-459 507v-494h-102v748h4l459 -506v493h102v-748z" />
    <glyph glyph-name="O" unicode="O" horiz-adv-x="806" 
d="M403 748q80 0 148 -28.5t117.5 -79.5t77.5 -121t28 -152q0 -83 -28 -152.5t-77.5 -120t-117.5 -79t-148 -28.5t-148 28.5t-117.5 79t-77 120t-27.5 152.5q0 82 27.5 152t77 121t117.5 79.5t148 28.5zM403 654q-59 0 -108 -21.5t-84 -60t-55 -91t-20 -114.5t20 -114.5
t55 -90.5t84 -59.5t108 -21.5q58 0 107.5 21.5t84.5 59.5t55 90.5t20 114.5t-20 114.5t-55 91t-84.5 60t-107.5 21.5z" />
    <glyph glyph-name="P" unicode="P" horiz-adv-x="618" 
d="M337 735q54 0 101 -15t81.5 -44.5t54 -73t19.5 -100.5q0 -56 -19.5 -99t-54 -72.5t-81 -45t-101.5 -15.5h-153v-270h-102v735h255zM184 645v-285h144q74 0 117.5 36t43.5 106t-44 106.5t-117 36.5h-144z" />
    <glyph glyph-name="Q" unicode="Q" horiz-adv-x="806" 
d="M403 748q80 0 148 -28.5t117.5 -79.5t77.5 -121t28 -152q0 -88 -31 -161t-87 -124l151 -174h-125l-104 120q-38 -20 -82.5 -30.5t-92.5 -10.5q-80 0 -148 28.5t-117.5 79t-77 120t-27.5 152.5q0 82 27.5 152t77 121t117.5 79.5t148 28.5zM403 654q-59 0 -108 -21.5
t-84 -60t-55 -91t-20 -114.5t20 -114.5t55 -90.5t84 -59.5t108 -21.5q58 0 110 22l-113 132l72 62l119 -139q38 38 58.5 91.5t20.5 117.5q0 62 -20 114.5t-55 91t-84.5 60t-107.5 21.5z" />
    <glyph glyph-name="R" unicode="R" horiz-adv-x="632" 
d="M324 735q55 0 102 -15t82 -44t55 -71.5t20 -97.5q0 -81 -41 -134t-108 -77l184 -296h-120l-172 279h-144v-279h-102v735h244zM182 645v-276h133q75 0 120 34.5t45 103.5q0 68 -45 103t-120 35h-133z" />
    <glyph glyph-name="S" unicode="S" horiz-adv-x="585" 
d="M285 748q75 0 135 -21.5t104 -56.5l-54 -84q-35 29 -81.5 48.5t-104.5 19.5q-60 0 -99 -27.5t-39 -87.5q0 -24 8.5 -41.5t28 -31t51 -23.5t78.5 -20q67 -15 113.5 -34t76 -44.5t42.5 -59t13 -75.5q0 -50 -18.5 -91t-52.5 -70.5t-82.5 -45.5t-108.5 -16q-82 0 -149.5 24.5
t-119.5 69.5l57 85q39 -39 97 -62t118 -23q69 0 113 30.5t44 90.5q0 24 -9.5 42.5t-30 33t-53.5 25.5t-79 21q-67 15 -113 34t-74 44.5t-40 58.5t-12 74q0 48 17.5 87.5t49 67.5t76 43t98.5 15z" />
    <glyph glyph-name="T" unicode="T" horiz-adv-x="649" 
d="M633 644h-258v-644h-102v644h-257v91h617v-91z" />
    <glyph glyph-name="U" unicode="U" horiz-adv-x="689" 
d="M616 259q0 -62 -17.5 -112t-51.5 -85.5t-84.5 -55t-117.5 -19.5t-118 19.5t-85 55t-51.5 85.5t-17.5 112v476h102v-470q0 -84 42.5 -134t127.5 -50q84 0 126.5 50t42.5 134v470h102v-476z" />
    <glyph glyph-name="V" unicode="V" horiz-adv-x="715" 
d="M360 -12h-4l-346 747h111l237 -522l237 522h110z" />
    <glyph glyph-name="W" unicode="W" horiz-adv-x="978" 
d="M680 -12h-4l-187 479l-187 -479h-4l-288 747h113l177 -478l187 478h4l187 -478l177 478h113z" />
    <glyph glyph-name="X" unicode="X" horiz-adv-x="670" 
d="M406 374l250 -374h-118l-203 298l-203 -298h-118l250 374l-240 361h119l192 -285l192 285h119z" />
    <glyph glyph-name="Y" unicode="Y" horiz-adv-x="660" 
d="M381 311v-311h-102v309l-272 425h119l204 -322l203 322h120z" />
    <glyph glyph-name="Z" unicode="Z" horiz-adv-x="580" 
d="M542 731l-355 -638h366v-93h-528v4l358 638h-342v93h501v-4z" />
    <glyph glyph-name="bracketleft" unicode="[" horiz-adv-x="308" 
d="M283 619h-134v-660h134v-80h-228v820h228v-80z" />
    <glyph glyph-name="backslash" unicode="\" horiz-adv-x="474" 
d="M469 0h-100l-364 734h100z" />
    <glyph glyph-name="bracketright" unicode="]" horiz-adv-x="314" 
d="M259 -121h-234v80h139v660h-139v80h234v-820z" />
    <glyph glyph-name="asciicircum" unicode="^" horiz-adv-x="533" 
d="M513 462h-90l-157 189l-155 -189h-91l246 298z" />
    <glyph glyph-name="underscore" unicode="_" horiz-adv-x="800" 
d="M760 -90h-720v90h720v-90z" />
    <glyph glyph-name="grave" unicode="`" horiz-adv-x="295" 
d="M280 576h-99l-155 131h116z" />
    <glyph glyph-name="a" unicode="a" horiz-adv-x="593" 
d="M262 512q60 0 99.5 -21t61.5 -50l4 61h89v-502h-89l-4 61q-22 -29 -61.5 -50t-99.5 -21q-52 0 -94.5 19.5t-73 54.5t-47.5 82.5t-17 104.5t17 104.5t47.5 82.5t73 54.5t94.5 19.5zM280 425q-33 0 -60.5 -12.5t-48 -35.5t-31.5 -55t-11 -71t11 -71t31.5 -55t48 -35.5
t60.5 -12.5q51 0 83 24t55 61v178q-23 37 -55 61t-83 24z" />
    <glyph glyph-name="b" unicode="b" horiz-adv-x="593" 
d="M175 448q23 26 61 45t95 19q52 0 94.5 -19.5t73 -54.5t47.5 -82.5t17 -104.5t-17 -104.5t-47.5 -82.5t-73 -54.5t-94.5 -19.5q-60 0 -99.5 21t-61.5 50l-4 -61h-89v760h98v-312zM313 425q-51 0 -83 -24t-55 -61v-178q23 -37 55 -61t83 -24q33 0 60.5 12.5t48 35.5
t31.5 55t11 71t-11 71t-31.5 55t-48 35.5t-60.5 12.5z" />
    <glyph glyph-name="c" unicode="c" horiz-adv-x="506" 
d="M283 512q68 0 117.5 -28.5t83.5 -79.5l-73 -56q-19 31 -50 54.5t-77 23.5q-38 0 -67 -13.5t-48.5 -36.5t-29.5 -55.5t-10 -69.5t10 -69t30 -55.5t49 -37t67 -13.5q46 0 78 23.5t51 54.5l73 -56q-34 -51 -84.5 -79.5t-117.5 -28.5q-59 0 -106 19.5t-80 54.5t-51 82.5
t-18 104.5t17.5 104.5t50.5 82.5t80 54.5t105 19.5z" />
    <glyph glyph-name="d" unicode="d" horiz-adv-x="593" 
d="M516 0h-89l-4 61q-22 -29 -61.5 -50t-99.5 -21q-52 0 -94.5 19.5t-73 54.5t-47.5 82.5t-17 104.5t17 104.5t47.5 82.5t73 54.5t94.5 19.5q57 0 95 -19t61 -45v312h98v-760zM280 425q-33 0 -60.5 -12.5t-48 -35.5t-31.5 -55t-11 -71t11 -71t31.5 -55t48 -35.5t60.5 -12.5
q51 0 83 24t55 61v178q-23 37 -55 61t-83 24z" />
    <glyph glyph-name="e" unicode="e" horiz-adv-x="530" 
d="M270 512q56 0 98.5 -20.5t71 -55.5t43 -81.5t14.5 -99.5v-39h-368q2 -69 41 -105.5t111 -36.5q50 0 83.5 19t52.5 45l68 -57q-36 -45 -85.5 -68t-118.5 -23q-58 0 -104.5 19.5t-79 54t-50 82t-17.5 104.5t17.5 105t49.5 83t76 54.5t97 19.5zM270 428q-61 0 -99 -36
t-42 -96h271q-2 60 -35.5 96t-94.5 36z" />
    <glyph glyph-name="f" unicode="f" horiz-adv-x="358" 
d="M281 760q35 0 62.5 -9t47.5 -26l-38 -78q-26 26 -67 26q-38 0 -59 -25.5t-21 -67.5v-78h131v-84h-131v-418h-98v418h-90v84h90v73q0 40 12 74t34.5 58.5t54.5 38.5t72 14z" />
    <glyph glyph-name="g" unicode="g" horiz-adv-x="594" 
d="M262 512q60 0 99.5 -21t61.5 -50l4 61h89v-489q0 -59 -18.5 -106t-52 -79.5t-81 -50t-105.5 -17.5q-78 0 -134.5 28.5t-96.5 76.5l65 64q30 -36 70 -59t95 -23q74 0 117 44.5t43 119.5v43q-23 -26 -61 -45t-95 -19q-52 0 -94.5 19.5t-73 54.5t-47.5 82.5t-17 104.5
t17 104.5t47.5 82.5t73 54.5t94.5 19.5zM280 425q-33 0 -60.5 -12.5t-48 -35.5t-31.5 -55t-11 -71t11 -71t31.5 -55t48 -35.5t60.5 -12.5q51 0 83 24t55 61v178q-23 37 -55 61t-83 24z" />
    <glyph glyph-name="h" unicode="h" horiz-adv-x="583" 
d="M175 447q26 29 61.5 47t92.5 18q45 0 80.5 -15.5t60 -43.5t37 -68t12.5 -88v-297h-98v291q0 57 -31 92.5t-85 35.5q-45 0 -76 -23.5t-54 -56.5v-339h-98v760h98v-313z" />
    <glyph glyph-name="i" unicode="i" horiz-adv-x="253" 
d="M175 0h-98v502h98v-502zM127 728q27 0 45.5 -18.5t18.5 -45.5q0 -28 -18.5 -46t-45.5 -18q-28 0 -46 18t-18 46q0 27 18 45.5t46 18.5z" />
    <glyph glyph-name="j" unicode="j" horiz-adv-x="253" 
d="M175 -57q0 -39 -13.5 -72.5t-38.5 -58t-59 -38.5t-74 -14q-48 0 -85.5 16.5t-66.5 45.5l64 66q15 -17 36 -29t50 -12q40 0 64.5 24.5t24.5 64.5v566h98v-559zM127 728q27 0 45.5 -18.5t18.5 -45.5q0 -28 -18.5 -46t-45.5 -18q-28 0 -46 18t-18 46q0 27 18 45.5t46 18.5z
" />
    <glyph glyph-name="k" unicode="k" horiz-adv-x="541" 
d="M175 180l217 322h117l-154 -220l179 -282h-115l-126 201l-137 -201h-79v760h98v-580z" />
    <glyph glyph-name="l" unicode="l" horiz-adv-x="253" 
d="M175 0h-98v760h98v-760z" />
    <glyph glyph-name="m" unicode="m" horiz-adv-x="908" 
d="M662 512q87 0 134.5 -59t47.5 -156v-297h-99v291q0 57 -29 92.5t-80 35.5q-43 0 -74 -24t-55 -59q1 -8 1.5 -15.5t0.5 -15.5v-305h-98v291q0 57 -29 92.5t-80 35.5q-43 0 -73 -23.5t-54 -55.5v-340h-98v502h89l4 -61q22 28 61 49.5t96 21.5q55 0 94 -24t61 -68
q29 40 73 66t107 26z" />
    <glyph glyph-name="n" unicode="n" horiz-adv-x="583" 
d="M329 512q45 0 80.5 -15.5t60 -43.5t37 -68t12.5 -88v-297h-98v291q0 57 -31 92.5t-85 35.5q-45 0 -76 -23.5t-54 -56.5v-339h-98v502h89l4 -61q22 28 61.5 49.5t97.5 21.5z" />
    <glyph glyph-name="o" unicode="o" 
d="M287 512q56 0 103 -19.5t81.5 -54.5t54 -83t19.5 -105t-19.5 -104.5t-54 -82t-81.5 -54t-103 -19.5t-103 19.5t-81.5 54t-53.5 82t-19 104.5t19 105t53.5 83t81.5 54.5t103 19.5zM287 425q-35 0 -64 -13t-50 -36.5t-32.5 -55.5t-11.5 -70t11.5 -69.5t32.5 -54.5t50 -36
t64 -13q34 0 63.5 13t50.5 36t33 54.5t12 69.5t-12 70t-33 55.5t-50.5 36.5t-63.5 13z" />
    <glyph glyph-name="p" unicode="p" horiz-adv-x="593" 
d="M331 512q52 0 94.5 -19.5t73 -54.5t47.5 -82.5t17 -104.5t-17 -104.5t-47.5 -82.5t-73 -54.5t-94.5 -19.5q-57 0 -95 19t-61 45v-284h-98v732h89l4 -61q22 29 61.5 50t99.5 21zM313 425q-51 0 -83 -24t-55 -61v-178q23 -37 55 -61t83 -24q33 0 60.5 12.5t48 35.5t31.5 55
t11 71t-11 71t-31.5 55t-48 35.5t-60.5 12.5z" />
    <glyph glyph-name="q" unicode="q" horiz-adv-x="593" 
d="M262 512q60 0 99.5 -21t61.5 -50l4 61h89v-732h-98v284q-23 -26 -61 -45t-95 -19q-52 0 -94.5 19.5t-73 54.5t-47.5 82.5t-17 104.5t17 104.5t47.5 82.5t73 54.5t94.5 19.5zM280 425q-33 0 -60.5 -12.5t-48 -35.5t-31.5 -55t-11 -71t11 -71t31.5 -55t48 -35.5t60.5 -12.5
q51 0 83 24t55 61v178q-23 37 -55 61t-83 24z" />
    <glyph glyph-name="r" unicode="r" horiz-adv-x="334" 
d="M320 414h-9q-47 0 -78.5 -23.5t-57.5 -60.5v-330h-98v502h89l5 -68q19 30 56 54t93 24v-98z" />
    <glyph glyph-name="s" unicode="s" horiz-adv-x="457" 
d="M239 512q51 0 94.5 -15.5t72.5 -39.5l-42 -76q-23 18 -53.5 31t-71.5 13q-42 0 -67 -13.5t-25 -44.5q0 -15 5.5 -25.5t18.5 -18t32.5 -13t48.5 -12.5q88 -21 129 -58t41 -94q0 -72 -54 -114t-147 -42q-57 0 -107 16.5t-84 44.5l45 78q28 -24 65 -38t82 -14t73 15.5
t28 47.5q0 15 -6 26t-18.5 19.5t-33 15t-49.5 13.5q-88 20 -127.5 54t-39.5 93q0 72 51 111.5t139 39.5z" />
    <glyph glyph-name="t" unicode="t" horiz-adv-x="398" 
d="M208 502h158v-84h-158v-249q0 -44 24 -67t62 -23q26 0 43.5 4.5t28.5 11.5l28 -77q-18 -11 -44.5 -19.5t-63.5 -8.5q-81 0 -128.5 45t-47.5 133v250h-98v84h98v170h98v-170z" />
    <glyph glyph-name="u" unicode="u" 
d="M498 0h-89l-4 61q-23 -29 -61.5 -50t-99.5 -21q-43 0 -76.5 15.5t-56 43t-34.5 67t-12 87.5v299h98v-294q0 -56 28 -90.5t78 -34.5q47 0 77.5 24t53.5 56v339h98v-502z" />
    <glyph glyph-name="v" unicode="v" horiz-adv-x="542" 
d="M273 -10h-4l-259 512h110l151 -306l151 306h109z" />
    <glyph glyph-name="w" unicode="w" horiz-adv-x="764" 
d="M530 -10h-4l-144 298l-145 -298h-4l-223 512h110l122 -291l138 291h4l138 -291l122 291h109z" />
    <glyph glyph-name="x" unicode="x" horiz-adv-x="500" 
d="M315 255l171 -255h-116l-122 183l-121 -183h-116l171 255l-164 247h115l115 -177l116 177h115z" />
    <glyph glyph-name="y" unicode="y" horiz-adv-x="552" 
d="M170 -230h-112l165 312l-207 420h109l151 -310l151 310h110z" />
    <glyph glyph-name="z" unicode="z" horiz-adv-x="453" 
d="M429 498l-250 -414h249v-84h-405v4l249 414h-234v84h391v-4z" />
    <glyph glyph-name="braceleft" unicode="{" horiz-adv-x="335" 
d="M310 619q-26 0 -48.5 -7.5t-38 -23.5t-21.5 -42t0 -62l9 -65q13 -53 -5.5 -85t-51.5 -45q33 -13 51.5 -45t5.5 -85l-9 -65q-6 -36 0 -62t21.5 -42t38 -23.5t48.5 -7.5v-80q-54 0 -98 14.5t-71.5 44t-36.5 73t6 101.5l9 63q6 24 1 42.5t-18 32t-33 23t-43 14.5v4
q23 5 43 14.5t33 23t18 32t-1 42.5l-9 63q-15 58 -6 101.5t36.5 72.5t71.5 44t98 15v-80z" />
    <glyph glyph-name="bar" unicode="|" horiz-adv-x="236" 
d="M165 -121h-94v820h94v-820z" />
    <glyph glyph-name="braceright" unicode="}" horiz-adv-x="335" 
d="M25 699q54 0 98 -15t72 -44t37 -72.5t-6 -101.5l-10 -63q-6 -24 -1 -42.5t18 -32t33 -23t43 -14.5v-4q-23 -5 -43 -14.5t-33 -23t-18 -32t1 -42.5l10 -63q15 -58 6 -101.5t-37 -73t-72 -44t-98 -14.5v80q26 0 48.5 7.5t38 23.5t21.5 42t0 62l-9 65q-7 27 -5 48t10 37
t21.5 27.5t30.5 17.5q-17 6 -30.5 17.5t-21.5 27.5t-10 37t5 48l9 65q6 36 0 62t-21.5 42t-38 23.5t-48.5 7.5v80v0z" />
    <glyph glyph-name="asciitilde" unicode="~" horiz-adv-x="588" 
d="M190 441q39 0 66 -13.5t48.5 -30t43 -30t50.5 -13.5q41 0 66.5 23t38.5 56l59 -45q-23 -57 -65 -91t-99 -34q-41 0 -66.5 13.5t-46.5 30t-42 30t-53 13.5q-41 0 -66.5 -22.5t-38.5 -56.5l-59 45q23 57 64.5 91t99.5 34z" />
    <glyph glyph-name="exclamdown" unicode="&#xa1;" horiz-adv-x="262" 
d="M83 293h98v-530h-98v530zM132 383q-28 0 -46.5 18.5t-18.5 45.5q0 28 18.5 46t46.5 18q27 0 45 -18t18 -46q0 -27 -18 -45.5t-45 -18.5z" />
    <glyph glyph-name="cent" unicode="&#xa2;" horiz-adv-x="509" 
d="M325 509q52 -8 91 -35t68 -70l-73 -56q-19 31 -50 54.5t-77 23.5q-38 0 -67 -13.5t-48.5 -36.5t-29.5 -55.5t-10 -69.5t10 -69t30 -55.5t49 -37t67 -13.5q46 0 78 23.5t51 54.5l73 -56q-29 -44 -69.5 -70.5t-92.5 -34.5v-139h-83v139q-49 7 -88.5 29t-67 55.5t-42 78
t-14.5 95.5t14.5 95.5t42 78t67 55.5t88.5 29v130h83v-130z" />
    <glyph glyph-name="sterling" unicode="&#xa3;" horiz-adv-x="580" 
d="M290 748q43 0 77 -13t59.5 -34t43 -48t26.5 -54l-95 -28q-11 39 -40 64t-74 25q-60 0 -89 -38t-29 -101q0 -29 5.5 -57t12.5 -55h179v-79h-160q4 -18 6 -33t2 -32q0 -55 -15.5 -98.5t-35.5 -78.5h179q54 0 79.5 25t25.5 86h97q0 -97 -44.5 -148t-139.5 -51h-344v4l39 65
t36 75.5t21 87t-6 98.5h-84v79h65q-7 25 -11.5 50.5t-4.5 54.5q0 110 59 172t160 62z" />
    <glyph glyph-name="currency" unicode="&#xa4;" horiz-adv-x="652" 
d="M615 492l-121 -120q31 -48 31 -109q0 -63 -31 -109l121 -120l-63 -63l-122 121q-22 -14 -48 -22t-56 -8q-58 0 -105 30l-121 -121l-63 63l121 120q-15 23 -23.5 50t-8.5 59q0 31 8.5 58.5t23.5 50.5l-121 120l63 63l121 -121q45 31 105 31q58 0 105 -31l121 121zM326 390
q-26 0 -47 -9.5t-37 -27t-24.5 -40.5t-8.5 -50t8.5 -50t24.5 -40t37 -26.5t47 -9.5q25 0 46.5 9.5t37 26.5t24 40t8.5 50t-8.5 50t-24 40.5t-37 27t-46.5 9.5z" />
    <glyph glyph-name="yen" unicode="&#xa5;" horiz-adv-x="658" 
d="M419 375h126v-74h-165v-84h165v-74h-165v-143h-102v143h-164v74h164v84h-164v74h124l-232 359h119l204 -322l203 322h120z" />
    <glyph glyph-name="brokenbar" unicode="&#xa6;" horiz-adv-x="236" 
d="M165 391h-94v308h94v-308zM165 -121h-94v308h94v-308z" />
    <glyph glyph-name="section" unicode="&#xa7;" horiz-adv-x="429" 
d="M216 421q-43 0 -69.5 -26t-26.5 -68t26.5 -67.5t69.5 -25.5q42 0 69.5 25.5t27.5 67.5t-27.5 68t-69.5 26zM230 748q47 0 83.5 -15.5t62.5 -42.5l-55 -61q-17 17 -39 27.5t-52 10.5q-43 0 -68.5 -21.5t-25.5 -57.5q0 -31 17 -49.5t49 -29.5q17 -6 35 -8.5t38 -8.5
q57 -17 91 -61.5t34 -103.5q0 -48 -23.5 -85t-62.5 -56q34 -17 52.5 -44.5t18.5 -68.5q0 -35 -14 -65t-39.5 -53t-61.5 -36t-80 -13q-49 0 -91 17.5t-72 52.5l59 60q18 -22 44 -35.5t61 -13.5q46 0 74 23t28 62q0 27 -15 44t-44 28q-16 6 -31 8t-32 6q-63 14 -101 59.5
t-38 109.5q0 48 23 84.5t63 55.5q-35 18 -54.5 47.5t-19.5 72.5q0 33 13 62.5t37 51t58.5 34.5t77.5 13z" />
    <glyph glyph-name="dieresis" unicode="&#xa8;" horiz-adv-x="320" 
d="M74 695q24 0 39.5 -15.5t15.5 -38.5t-15.5 -38.5t-39.5 -15.5q-23 0 -38.5 15.5t-15.5 38.5t15.5 38.5t38.5 15.5zM245 695q23 0 39 -15.5t16 -38.5t-16 -38.5t-39 -15.5t-38.5 15.5t-15.5 38.5t15.5 38.5t38.5 15.5z" />
    <glyph glyph-name="copyright" unicode="&#xa9;" horiz-adv-x="670" 
d="M346 642q39 0 68 -12.5t52 -37.5l-40 -47q-14 16 -34 25t-46 9q-48 0 -76.5 -30t-28.5 -80q0 -51 28.5 -80.5t76.5 -29.5q26 0 46.5 9.5t34.5 25.5l40 -47q-47 -51 -121 -51q-37 0 -68.5 13t-54 36t-35.5 54.5t-13 69.5q0 37 13 68.5t35.5 55t54 36.5t68.5 13zM335 779
q65 0 121 -24t96.5 -66t63.5 -99t23 -124q0 -68 -23 -125t-63.5 -98.5t-96.5 -65t-121 -23.5q-66 0 -121.5 23.5t-96 65t-63 98.5t-22.5 125q0 67 22.5 124t63 99t96 66t121.5 24zM335 717q-52 0 -95.5 -19.5t-75 -53t-49 -79.5t-17.5 -99q0 -54 17.5 -100t49 -79.5
t75 -52.5t95.5 -19q51 0 94.5 19t75 52.5t49.5 79.5t18 100q0 53 -18 99t-49.5 79.5t-75 53t-94.5 19.5z" />
    <glyph glyph-name="ordfeminine" unicode="&#xaa;" horiz-adv-x="430" 
d="M184 748q44 0 71 -15t42 -33l3 41h73v-353h-73l-3 41q-15 -18 -42 -33t-71 -15q-35 0 -64 13.5t-50 38t-32.5 58t-11.5 73.5t11.5 73.5t32.5 58t50 38.5t64 14zM204 677q-43 0 -70 -31t-27 -82t27 -82t70 -31q32 0 53 15.5t35 36.5v123q-14 21 -35 36t-53 15z" />
    <glyph glyph-name="guillemotleft" unicode="&#xab;" horiz-adv-x="489" 
d="M110 256l135 -202h-92l-138 200v4l138 200h92zM338 256l136 -202h-92l-138 200v4l138 200h92z" />
    <glyph glyph-name="logicalnot" unicode="&#xac;" horiz-adv-x="582" 
d="M545 156h-70v209h-438v69h508v-278z" />
    <glyph glyph-name="registered" unicode="&#xae;" horiz-adv-x="670" 
d="M335 779q65 0 121 -24t96.5 -66t63.5 -99t23 -124q0 -68 -23 -125t-63.5 -98.5t-96.5 -65t-121 -23.5q-66 0 -121.5 23.5t-96 65t-63 98.5t-22.5 125q0 67 22.5 124t63 99t96 66t121.5 24zM335 717q-52 0 -95.5 -19.5t-75 -53t-49 -79.5t-17.5 -99q0 -54 17.5 -100
t49 -79.5t75 -52.5t95.5 -19q51 0 94.5 19t75 52.5t49.5 79.5t18 100q0 53 -18 99t-49.5 79.5t-75 53t-94.5 19.5zM340 638q25 0 47 -7t38.5 -21t26.5 -34.5t10 -46.5q0 -36 -17.5 -61.5t-45.5 -38.5l79 -130h-76l-72 118h-49v-118h-66v339h125zM281 578v-101h53
q29 0 45.5 12.5t16.5 38.5t-16.5 38t-45.5 12h-53z" />
    <glyph glyph-name="macron" unicode="&#xaf;" horiz-adv-x="300" 
d="M280 597h-260v68h260v-68z" />
    <glyph glyph-name="degree" unicode="&#xb0;" horiz-adv-x="343" 
d="M173 747q30 0 55.5 -10.5t44.5 -29.5t29.5 -44.5t10.5 -55.5t-10.5 -55.5t-29.5 -44t-44.5 -29t-55.5 -10.5q-31 0 -57.5 10.5t-45.5 29t-29.5 44t-10.5 55.5t10.5 55.5t29.5 44.5t45.5 29.5t57.5 10.5zM173 683q-33 0 -54 -21.5t-21 -54.5q0 -32 21 -53.5t54 -21.5
q31 0 52 21.5t21 53.5q0 33 -21 54.5t-52 21.5z" />
    <glyph glyph-name="plusminus" unicode="&#xb1;" horiz-adv-x="486" 
d="M287 499h159v-91h-159v-158h-90v158h-158v91h158v157h90v-157zM446 87h-407v90h407v-90z" />
    <glyph glyph-name="uni00B2" unicode="&#xb2;" horiz-adv-x="345" 
d="M174 821q63 0 101.5 -36.5t38.5 -93.5q0 -37 -14 -65t-39 -59l-89 -107h146v-66h-273v4l154 207q22 26 31 45t9 42q0 29 -18 46t-47 17q-58 0 -70 -65l-67 15q23 116 137 116z" />
    <glyph glyph-name="uni00B3" unicode="&#xb3;" horiz-adv-x="340" 
d="M175 821q30 0 54.5 -9.5t42.5 -26.5t27.5 -39.5t9.5 -49.5q0 -33 -15.5 -54t-39.5 -32q30 -12 48.5 -36t18.5 -59q0 -57 -38.5 -93t-104.5 -36q-115 0 -145 109l66 16q9 -27 27 -42.5t52 -15.5q31 0 50 18t19 48q0 27 -20.5 45.5t-53.5 18.5h-47v57h49q24 1 42.5 14.5
t18.5 42.5q0 26 -18 42t-45 16q-51 0 -68 -53l-64 28q14 43 47 67t87 24z" />
    <glyph glyph-name="acute" unicode="&#xb4;" horiz-adv-x="295" 
d="M114 576h-99l138 131h116z" />
    <glyph glyph-name="uni00B5" unicode="&#xb5;" horiz-adv-x="588" 
d="M510 0h-89l-4 61q-23 -29 -60 -50t-91 -21q-33 0 -55 6.5t-36 16.5v-243h-98v732h98v-294q0 -56 28 -90.5t78 -34.5q47 0 77.5 24t53.5 56v339h98v-502z" />
    <glyph glyph-name="paragraph" unicode="&#xb6;" horiz-adv-x="701" 
d="M665 657h-89v-767h-84v767h-108v-767h-84v416h-3q-56 0 -105.5 12.5t-86.5 38t-58.5 65.5t-21.5 94q0 55 20.5 96t57 68.5t86.5 41t109 13.5h367v-78z" />
    <glyph glyph-name="periodcentered" unicode="&#xb7;" horiz-adv-x="192" 
d="M96 322q29 0 47.5 -18.5t18.5 -47.5q0 -28 -18.5 -46.5t-47.5 -18.5t-47.5 18.5t-18.5 46.5q0 29 18.5 47.5t47.5 18.5z" />
    <glyph glyph-name="cedilla" unicode="&#xb8;" horiz-adv-x="245" 
d="M150 12l-11 -68q42 -4 66 -28t24 -66q0 -46 -28.5 -74t-80.5 -28q-32 0 -57 10.5t-42 29.5l39 45q10 -11 24.5 -19.5t32.5 -8.5q20 0 32 10.5t12 31.5q0 38 -41 42q-15 2 -26 0t-22 -7l-3 4l23 130z" />
    <glyph glyph-name="uni00B9" unicode="&#xb9;" horiz-adv-x="257" 
d="M203 394h-74v308l-71 -45l-32 67l175 97h2v-427z" />
    <glyph glyph-name="ordmasculine" unicode="&#xba;" horiz-adv-x="417" 
d="M209 748q39 0 72.5 -14t57.5 -38.5t38 -58.5t14 -73q0 -40 -14 -73.5t-38 -58t-57.5 -38t-72.5 -13.5q-40 0 -73.5 13.5t-58 38t-38 58t-13.5 73.5q0 39 13.5 73t38 58.5t58 38.5t73.5 14zM209 677q-45 0 -73.5 -32t-28.5 -81t28.5 -81t73.5 -32q44 0 72.5 32t28.5 81
t-28.5 81t-72.5 32z" />
    <glyph glyph-name="guillemotright" unicode="&#xbb;" horiz-adv-x="489" 
d="M245 258v-4l-138 -200h-92l136 202l-136 202h92zM474 258v-4l-138 -200h-92l135 202l-135 202h92z" />
    <glyph glyph-name="onequarter" unicode="&#xbc;" horiz-adv-x="731" 
d="M219 0h-91l364 734h91zM203 294h-74v308l-71 -45l-32 67l175 97h2v-427zM660 124h55v-60h-55v-64h-72v65h-216v2l286 361h2v-304zM495 123h94v122z" />
    <glyph glyph-name="onehalf" unicode="&#xbd;" horiz-adv-x="791" 
d="M219 0h-91l364 734h91zM203 294h-74v308l-71 -45l-32 67l175 97h2v-427zM620 427q63 0 101.5 -36.5t38.5 -93.5q0 -37 -14 -65t-39 -59l-89 -107h146v-66h-273v4l154 207q22 26 31 45t9 42q0 29 -18 46t-47 17q-58 0 -70 -65l-67 15q23 116 137 116z" />
    <glyph glyph-name="threequarters" unicode="&#xbe;" horiz-adv-x="815" 
d="M302 0h-91l364 734h91zM743 124h55v-60h-55v-64h-72v65h-216v2l286 361h2v-304zM578 123h94v122zM175 721q30 0 54.5 -9.5t42.5 -26.5t27.5 -39.5t9.5 -49.5q0 -33 -15.5 -54t-39.5 -32q30 -12 48.5 -36t18.5 -59q0 -57 -38.5 -93t-104.5 -36q-115 0 -145 109l66 16
q9 -27 27 -42.5t52 -15.5q31 0 50 18t19 48q0 27 -20.5 45.5t-53.5 18.5h-47v57h49q24 1 42.5 14.5t18.5 42.5q0 26 -18 42t-45 16q-51 0 -68 -53l-64 28q14 43 47 67t87 24z" />
    <glyph glyph-name="questiondown" unicode="&#xbf;" horiz-adv-x="491" 
d="M253 -250q-48 0 -88 15t-68.5 42t-44 64t-15.5 80t12.5 73t30.5 52.5t40 40.5t40 36t30.5 39.5t12.5 51.5v49h99v-61q0 -37 -12 -63.5t-30 -47.5t-39 -38t-39 -36t-30 -41.5t-12 -53.5q0 -54 33 -83t81 -29q51 0 80.5 26.5t39.5 77.5l97 -17q-18 -84 -71.5 -130.5
t-146.5 -46.5zM252 383q-28 0 -46 18.5t-18 45.5q0 28 18 46t46 18t46 -18t18 -46q0 -27 -18 -45.5t-46 -18.5z" />
    <glyph glyph-name="Agrave" unicode="&#xc0;" horiz-adv-x="698" 
d="M222 239h254l-127 284zM689 0h-109l-66 150h-330l-66 -150h-109l338 748h4zM403 772h-108l-146 115h121z" />
    <glyph glyph-name="Aacute" unicode="&#xc1;" horiz-adv-x="698" 
d="M222 239h254l-127 284zM689 0h-109l-66 150h-330l-66 -150h-109l338 748h4zM392 772h-108l133 115h121z" />
    <glyph glyph-name="Acircumflex" unicode="&#xc2;" horiz-adv-x="698" 
d="M222 239h254l-127 284zM689 0h-109l-66 150h-330l-66 -150h-109l338 748h4zM507 771h-91l-68 61l-68 -61h-91l159 145z" />
    <glyph glyph-name="Atilde" unicode="&#xc3;" horiz-adv-x="698" 
d="M222 239h254l-127 284zM689 0h-109l-66 150h-330l-66 -150h-109l338 748h4zM287 915q32 0 49.5 -12t29.5 -27t22.5 -27t27.5 -12t24.5 20t7.5 52h64q0 -72 -29.5 -105.5t-72.5 -33.5q-33 0 -49.5 12t-27.5 27t-21 27t-28 12q-19 0 -26.5 -20t-7.5 -52h-65q0 73 30 106
t72 33z" />
    <glyph glyph-name="Adieresis" unicode="&#xc4;" horiz-adv-x="698" 
d="M222 239h254l-127 284zM689 0h-109l-66 150h-330l-66 -150h-109l338 748h4zM263 883q24 0 39.5 -15.5t15.5 -38.5t-15.5 -38.5t-39.5 -15.5q-23 0 -38.5 15.5t-15.5 38.5t15.5 38.5t38.5 15.5zM434 883q23 0 39 -15.5t16 -38.5t-16 -38.5t-39 -15.5t-38.5 15.5
t-15.5 38.5t15.5 38.5t38.5 15.5z" />
    <glyph glyph-name="Aring" unicode="&#xc5;" horiz-adv-x="698" 
d="M222 239h254l-127 284zM689 0h-109l-66 150h-330l-66 -150h-109l338 748h4zM349 986q47 0 78 -30.5t31 -77.5q0 -48 -31 -78t-78 -30q-48 0 -79 30t-31 78q0 47 31 77.5t79 30.5zM349 931q-22 0 -37 -15t-15 -38t15 -37.5t37 -14.5t37 14.5t15 37.5t-15 38t-37 15z" />
    <glyph glyph-name="AE" unicode="&#xc6;" horiz-adv-x="870" 
d="M831 641h-410l93 -225h274v-87h-238l98 -235h191v-94h-264l-64 155h-325l-63 -155h-114l319 735h503v-94zM219 235h260l-130 318z" />
    <glyph glyph-name="Ccedilla" unicode="&#xc7;" horiz-adv-x="680" 
d="M403 748q83 0 146 -27.5t114 -79.5l-65 -74q-35 38 -84 62.5t-111 24.5q-60 0 -109 -21.5t-84 -60t-54.5 -91t-19.5 -114.5t19.5 -114.5t54.5 -90.5t84 -59.5t109 -21.5q64 0 114.5 25.5t85.5 66.5l64 -76q-52 -57 -117.5 -83t-143.5 -27l-7 -43q42 -4 66 -28t24 -66
q0 -46 -28.5 -74t-80.5 -28q-32 0 -57 10.5t-42 29.5l39 45q10 -11 24.5 -19.5t32.5 -8.5q20 0 32 10.5t12 31.5q0 38 -41 42q-15 2 -26 0t-22 -7l-3 4l18 105q-70 9 -127.5 41t-99 81.5t-64.5 114t-23 139.5q0 82 27.5 152t76.5 121t117 79.5t149 28.5z" />
    <glyph glyph-name="Egrave" unicode="&#xc8;" horiz-adv-x="577" 
d="M537 641h-353v-223h310v-91h-310v-233h361v-94h-463v735h455v-94zM372 772h-108l-146 115h121z" />
    <glyph glyph-name="Eacute" unicode="&#xc9;" horiz-adv-x="577" 
d="M537 641h-353v-223h310v-91h-310v-233h361v-94h-463v735h455v-94zM362 772h-108l133 115h121z" />
    <glyph glyph-name="Ecircumflex" unicode="&#xca;" horiz-adv-x="577" 
d="M537 641h-353v-223h310v-91h-310v-233h361v-94h-463v735h455v-94zM476 771h-91l-68 61l-68 -61h-91l159 145z" />
    <glyph glyph-name="Edieresis" unicode="&#xcb;" horiz-adv-x="577" 
d="M537 641h-353v-223h310v-91h-310v-233h361v-94h-463v735h455v-94zM232 883q24 0 39.5 -15.5t15.5 -38.5t-15.5 -38.5t-39.5 -15.5q-23 0 -38.5 15.5t-15.5 38.5t15.5 38.5t38.5 15.5zM403 883q23 0 39 -15.5t16 -38.5t-16 -38.5t-39 -15.5t-38.5 15.5t-15.5 38.5
t15.5 38.5t38.5 15.5z" />
    <glyph glyph-name="Igrave" unicode="&#xcc;" horiz-adv-x="266" 
d="M184 0h-102v735h102v-735zM188 772h-108l-146 115h121z" />
    <glyph glyph-name="Iacute" unicode="&#xcd;" horiz-adv-x="266" 
d="M184 0h-102v735h102v-735zM176 772h-108l133 115h121z" />
    <glyph glyph-name="Icircumflex" unicode="&#xce;" horiz-adv-x="266" 
d="M184 0h-102v735h102v-735zM292 771h-91l-68 61l-68 -61h-91l159 145z" />
    <glyph glyph-name="Idieresis" unicode="&#xcf;" horiz-adv-x="266" 
d="M184 0h-102v735h102v-735zM48 883q24 0 39.5 -15.5t15.5 -38.5t-15.5 -38.5t-39.5 -15.5q-23 0 -38.5 15.5t-15.5 38.5t15.5 38.5t38.5 15.5zM219 883q23 0 39 -15.5t16 -38.5t-16 -38.5t-39 -15.5t-38.5 15.5t-15.5 38.5t15.5 38.5t38.5 15.5z" />
    <glyph glyph-name="Eth" unicode="&#xd0;" horiz-adv-x="750" 
d="M322 735q93 0 166.5 -24.5t124 -72t77.5 -115.5t27 -155t-26.5 -155.5t-77 -115.5t-124 -72t-167.5 -25h-222v343h-87v69h87v323h222zM202 640v-228h114v-69h-114v-249h117q144 0 219.5 71.5t75.5 202.5q0 130 -76 201t-219 71h-117z" />
    <glyph glyph-name="Ntilde" unicode="&#xd1;" horiz-adv-x="729" 
d="M647 -13h-4l-459 507v-494h-102v748h4l459 -506v493h102v-748zM303 915q32 0 49.5 -12t29.5 -27t22.5 -27t27.5 -12t24.5 20t7.5 52h64q0 -72 -29.5 -105.5t-72.5 -33.5q-33 0 -49.5 12t-27.5 27t-21 27t-28 12q-19 0 -26.5 -20t-7.5 -52h-65q0 73 30 106t72 33z" />
    <glyph glyph-name="Ograve" unicode="&#xd2;" horiz-adv-x="806" 
d="M403 748q80 0 148 -28.5t117.5 -79.5t77.5 -121t28 -152q0 -83 -28 -152.5t-77.5 -120t-117.5 -79t-148 -28.5t-148 28.5t-117.5 79t-77 120t-27.5 152.5q0 82 27.5 152t77 121t117.5 79.5t148 28.5zM403 654q-59 0 -108 -21.5t-84 -60t-55 -91t-20 -114.5t20 -114.5
t55 -90.5t84 -59.5t108 -21.5q58 0 107.5 21.5t84.5 59.5t55 90.5t20 114.5t-20 114.5t-55 91t-84.5 60t-107.5 21.5zM457 782h-108l-146 115h121z" />
    <glyph glyph-name="Oacute" unicode="&#xd3;" horiz-adv-x="806" 
d="M403 748q80 0 148 -28.5t117.5 -79.5t77.5 -121t28 -152q0 -83 -28 -152.5t-77.5 -120t-117.5 -79t-148 -28.5t-148 28.5t-117.5 79t-77 120t-27.5 152.5q0 82 27.5 152t77 121t117.5 79.5t148 28.5zM403 654q-59 0 -108 -21.5t-84 -60t-55 -91t-20 -114.5t20 -114.5
t55 -90.5t84 -59.5t108 -21.5q58 0 107.5 21.5t84.5 59.5t55 90.5t20 114.5t-20 114.5t-55 91t-84.5 60t-107.5 21.5zM447 782h-108l133 115h121z" />
    <glyph glyph-name="Ocircumflex" unicode="&#xd4;" horiz-adv-x="806" 
d="M403 748q80 0 148 -28.5t117.5 -79.5t77.5 -121t28 -152q0 -83 -28 -152.5t-77.5 -120t-117.5 -79t-148 -28.5t-148 28.5t-117.5 79t-77 120t-27.5 152.5q0 82 27.5 152t77 121t117.5 79.5t148 28.5zM403 654q-59 0 -108 -21.5t-84 -60t-55 -91t-20 -114.5t20 -114.5
t55 -90.5t84 -59.5t108 -21.5q58 0 107.5 21.5t84.5 59.5t55 90.5t20 114.5t-20 114.5t-55 91t-84.5 60t-107.5 21.5zM561 781h-91l-68 61l-68 -61h-91l159 145z" />
    <glyph glyph-name="Otilde" unicode="&#xd5;" horiz-adv-x="806" 
d="M403 748q80 0 148 -28.5t117.5 -79.5t77.5 -121t28 -152q0 -83 -28 -152.5t-77.5 -120t-117.5 -79t-148 -28.5t-148 28.5t-117.5 79t-77 120t-27.5 152.5q0 82 27.5 152t77 121t117.5 79.5t148 28.5zM403 654q-59 0 -108 -21.5t-84 -60t-55 -91t-20 -114.5t20 -114.5
t55 -90.5t84 -59.5t108 -21.5q58 0 107.5 21.5t84.5 59.5t55 90.5t20 114.5t-20 114.5t-55 91t-84.5 60t-107.5 21.5zM341 925q32 0 49.5 -12t29.5 -27t22.5 -27t27.5 -12t24.5 20t7.5 52h64q0 -72 -29.5 -105.5t-72.5 -33.5q-33 0 -49.5 12t-27.5 27t-21 27t-28 12
q-19 0 -26.5 -20t-7.5 -52h-65q0 73 30 106t72 33z" />
    <glyph glyph-name="Odieresis" unicode="&#xd6;" horiz-adv-x="806" 
d="M403 748q80 0 148 -28.5t117.5 -79.5t77.5 -121t28 -152q0 -83 -28 -152.5t-77.5 -120t-117.5 -79t-148 -28.5t-148 28.5t-117.5 79t-77 120t-27.5 152.5q0 82 27.5 152t77 121t117.5 79.5t148 28.5zM403 654q-59 0 -108 -21.5t-84 -60t-55 -91t-20 -114.5t20 -114.5
t55 -90.5t84 -59.5t108 -21.5q58 0 107.5 21.5t84.5 59.5t55 90.5t20 114.5t-20 114.5t-55 91t-84.5 60t-107.5 21.5zM317 893q24 0 39.5 -15.5t15.5 -38.5t-15.5 -38.5t-39.5 -15.5q-23 0 -38.5 15.5t-15.5 38.5t15.5 38.5t38.5 15.5zM488 893q23 0 39 -15.5t16 -38.5
t-16 -38.5t-39 -15.5t-38.5 15.5t-15.5 38.5t15.5 38.5t38.5 15.5z" />
    <glyph glyph-name="multiply" unicode="&#xd7;" horiz-adv-x="455" 
d="M411 470l-120 -120l120 -120l-64 -64l-119 120l-120 -120l-64 64l120 120l-120 119l64 64l120 -119l119 119z" />
    <glyph glyph-name="Oslash" unicode="&#xd8;" horiz-adv-x="806" 
d="M403 748q79 0 148 -29l53 96h89l-73 -134q72 -51 113 -132t41 -182q0 -83 -28 -152.5t-77.5 -120t-117.5 -79t-148 -28.5t-148 28l-52 -95h-90l73 133q-72 51 -112.5 131.5t-40.5 182.5q0 82 27.5 152t77 121t117.5 79.5t148 28.5zM403 654q-59 0 -108 -21.5t-84 -60
t-55 -91t-20 -114.5q0 -72 25.5 -130.5t71.5 -96.5l272 494q-48 20 -102 20zM670 367q0 72 -26 130.5t-72 96.5l-271 -494q45 -19 102 -19q58 0 107.5 21.5t84.5 59.5t55 90.5t20 114.5z" />
    <glyph glyph-name="Ugrave" unicode="&#xd9;" horiz-adv-x="689" 
d="M616 259q0 -62 -17.5 -112t-51.5 -85.5t-84.5 -55t-117.5 -19.5t-118 19.5t-85 55t-51.5 85.5t-17.5 112v476h102v-470q0 -84 42.5 -134t127.5 -50q84 0 126.5 50t42.5 134v470h102v-476zM399 772h-108l-146 115h121z" />
    <glyph glyph-name="Uacute" unicode="&#xda;" horiz-adv-x="689" 
d="M616 259q0 -62 -17.5 -112t-51.5 -85.5t-84.5 -55t-117.5 -19.5t-118 19.5t-85 55t-51.5 85.5t-17.5 112v476h102v-470q0 -84 42.5 -134t127.5 -50q84 0 126.5 50t42.5 134v470h102v-476zM388 772h-108l133 115h121z" />
    <glyph glyph-name="Ucircumflex" unicode="&#xdb;" horiz-adv-x="689" 
d="M616 259q0 -62 -17.5 -112t-51.5 -85.5t-84.5 -55t-117.5 -19.5t-118 19.5t-85 55t-51.5 85.5t-17.5 112v476h102v-470q0 -84 42.5 -134t127.5 -50q84 0 126.5 50t42.5 134v470h102v-476zM503 771h-91l-68 61l-68 -61h-91l159 145z" />
    <glyph glyph-name="Udieresis" unicode="&#xdc;" horiz-adv-x="689" 
d="M616 259q0 -62 -17.5 -112t-51.5 -85.5t-84.5 -55t-117.5 -19.5t-118 19.5t-85 55t-51.5 85.5t-17.5 112v476h102v-470q0 -84 42.5 -134t127.5 -50q84 0 126.5 50t42.5 134v470h102v-476zM259 883q24 0 39.5 -15.5t15.5 -38.5t-15.5 -38.5t-39.5 -15.5q-23 0 -38.5 15.5
t-15.5 38.5t15.5 38.5t38.5 15.5zM430 883q23 0 39 -15.5t16 -38.5t-16 -38.5t-39 -15.5t-38.5 15.5t-15.5 38.5t15.5 38.5t38.5 15.5z" />
    <glyph glyph-name="Yacute" unicode="&#xdd;" horiz-adv-x="660" 
d="M381 311v-311h-102v309l-272 425h119l204 -322l203 322h120zM373 772h-108l133 115h121z" />
    <glyph glyph-name="Thorn" unicode="&#xde;" horiz-adv-x="566" 
d="M184 603h124q45 0 87 -14t73.5 -40t50.5 -65t19 -88q0 -50 -19 -88.5t-50.5 -65t-73.5 -40t-87 -13.5h-124v-189h-102v735h102v-132zM184 513v-235h115q28 0 52.5 7.5t43 22.5t29.5 37t11 51q0 28 -11 50t-29.5 37t-43 22.5t-52.5 7.5h-115z" />
    <glyph glyph-name="germandbls" unicode="&#xdf;" horiz-adv-x="647" 
d="M314 748q49 0 89 -15.5t68.5 -42.5t44 -64t15.5 -81q0 -56 -26.5 -91.5t-64.5 -52.5q24 -7 49 -21t45 -37.5t33 -56.5t13 -77q0 -50 -16 -90.5t-46.5 -70t-74 -45.5t-97.5 -16q-62 0 -105 24l21 88q17 -10 34.5 -16t46.5 -6q28 0 52.5 9t42.5 26t28 41.5t10 56.5
q0 48 -25.5 80.5t-73.5 46.5q-23 7 -41.5 9.5t-43.5 2.5v75q23 0 38.5 4.5t33.5 12.5q26 12 45 35.5t19 61.5q0 28 -9.5 50.5t-26 38.5t-37.5 24t-45 8q-57 0 -91 -32t-34 -101v-526h-100v521q0 54 18 96t49 71t72.5 44.5t89.5 15.5z" />
    <glyph glyph-name="agrave" unicode="&#xe0;" horiz-adv-x="593" 
d="M262 512q60 0 99.5 -21t61.5 -50l4 61h89v-502h-89l-4 61q-22 -29 -61.5 -50t-99.5 -21q-52 0 -94.5 19.5t-73 54.5t-47.5 82.5t-17 104.5t17 104.5t47.5 82.5t73 54.5t94.5 19.5zM280 425q-33 0 -60.5 -12.5t-48 -35.5t-31.5 -55t-11 -71t11 -71t31.5 -55t48 -35.5
t60.5 -12.5q51 0 83 24t55 61v178q-23 37 -55 61t-83 24zM347 576h-99l-155 131h116z" />
    <glyph glyph-name="aacute" unicode="&#xe1;" horiz-adv-x="593" 
d="M262 512q60 0 99.5 -21t61.5 -50l4 61h89v-502h-89l-4 61q-22 -29 -61.5 -50t-99.5 -21q-52 0 -94.5 19.5t-73 54.5t-47.5 82.5t-17 104.5t17 104.5t47.5 82.5t73 54.5t94.5 19.5zM280 425q-33 0 -60.5 -12.5t-48 -35.5t-31.5 -55t-11 -71t11 -71t31.5 -55t48 -35.5
t60.5 -12.5q51 0 83 24t55 61v178q-23 37 -55 61t-83 24zM334 576h-99l138 131h116z" />
    <glyph glyph-name="acircumflex" unicode="&#xe2;" horiz-adv-x="593" 
d="M262 512q60 0 99.5 -21t61.5 -50l4 61h89v-502h-89l-4 61q-22 -29 -61.5 -50t-99.5 -21q-52 0 -94.5 19.5t-73 54.5t-47.5 82.5t-17 104.5t17 104.5t47.5 82.5t73 54.5t94.5 19.5zM280 425q-33 0 -60.5 -12.5t-48 -35.5t-31.5 -55t-11 -71t11 -71t31.5 -55t48 -35.5
t60.5 -12.5q51 0 83 24t55 61v178q-23 37 -55 61t-83 24zM447 576h-89l-65 65l-66 -65h-89l155 167z" />
    <glyph glyph-name="atilde" unicode="&#xe3;" horiz-adv-x="593" 
d="M262 512q60 0 99.5 -21t61.5 -50l4 61h89v-502h-89l-4 61q-22 -29 -61.5 -50t-99.5 -21q-52 0 -94.5 19.5t-73 54.5t-47.5 82.5t-17 104.5t17 104.5t47.5 82.5t73 54.5t94.5 19.5zM280 425q-33 0 -60.5 -12.5t-48 -35.5t-31.5 -55t-11 -71t11 -71t31.5 -55t48 -35.5
t60.5 -12.5q51 0 83 24t55 61v178q-23 37 -55 61t-83 24zM232 717q32 0 49.5 -12t29.5 -27t22.5 -27t27.5 -12t24.5 20t7.5 52h64q0 -72 -29.5 -105.5t-72.5 -33.5q-33 0 -49.5 12t-27.5 27t-21 27t-28 12q-19 0 -26.5 -20t-7.5 -52h-65q0 73 30 106t72 33z" />
    <glyph glyph-name="adieresis" unicode="&#xe4;" horiz-adv-x="593" 
d="M262 512q60 0 99.5 -21t61.5 -50l4 61h89v-502h-89l-4 61q-22 -29 -61.5 -50t-99.5 -21q-52 0 -94.5 19.5t-73 54.5t-47.5 82.5t-17 104.5t17 104.5t47.5 82.5t73 54.5t94.5 19.5zM280 425q-33 0 -60.5 -12.5t-48 -35.5t-31.5 -55t-11 -71t11 -71t31.5 -55t48 -35.5
t60.5 -12.5q51 0 83 24t55 61v178q-23 37 -55 61t-83 24zM208 695q24 0 39.5 -15.5t15.5 -38.5t-15.5 -38.5t-39.5 -15.5q-23 0 -38.5 15.5t-15.5 38.5t15.5 38.5t38.5 15.5zM379 695q23 0 39 -15.5t16 -38.5t-16 -38.5t-39 -15.5t-38.5 15.5t-15.5 38.5t15.5 38.5
t38.5 15.5z" />
    <glyph glyph-name="aring" unicode="&#xe5;" horiz-adv-x="593" 
d="M262 512q60 0 99.5 -21t61.5 -50l4 61h89v-502h-89l-4 61q-22 -29 -61.5 -50t-99.5 -21q-52 0 -94.5 19.5t-73 54.5t-47.5 82.5t-17 104.5t17 104.5t47.5 82.5t73 54.5t94.5 19.5zM280 425q-33 0 -60.5 -12.5t-48 -35.5t-31.5 -55t-11 -71t11 -71t31.5 -55t48 -35.5
t60.5 -12.5q51 0 83 24t55 61v178q-23 37 -55 61t-83 24zM294 787q47 0 78 -31t31 -78t-31 -77t-78 -30q-48 0 -79 30t-31 77t31 78t79 31zM294 731q-22 0 -37 -15t-15 -38t15 -37t37 -14t37 14t15 37t-15 38t-37 15z" />
    <glyph glyph-name="ae" unicode="&#xe6;" horiz-adv-x="944" 
d="M680 512q55 0 98.5 -19.5t72.5 -54t44.5 -82.5t15.5 -104v-36h-377q5 -68 41.5 -105t114.5 -37q47 0 82.5 17.5t58.5 46.5l68 -57q-37 -45 -89.5 -68t-116.5 -23q-66 0 -111 20t-68 51l-4 -61h-83l-4 61q-22 -29 -61.5 -50t-99.5 -21q-52 0 -94.5 19.5t-73 54.5
t-47.5 82.5t-17 104.5t17 104.5t47.5 82.5t73 54.5t94.5 19.5q60 0 99.5 -21t61.5 -50l4 61h84l4 -61q27 29 67.5 50t97.5 21zM676 428q-27 0 -52 -7.5t-44 -24t-31.5 -41.5t-15.5 -59h281q-3 59 -38 95.5t-100 36.5zM280 425q-33 0 -60.5 -12.5t-48 -35.5t-31.5 -55
t-11 -71t11 -71t31.5 -55t48 -35.5t60.5 -12.5q51 0 83 24t55 61v178q-23 37 -55 61t-83 24z" />
    <glyph glyph-name="ccedilla" unicode="&#xe7;" horiz-adv-x="506" 
d="M283 512q68 0 117.5 -28.5t83.5 -79.5l-73 -56q-19 31 -50 54.5t-77 23.5q-38 0 -67 -13.5t-48.5 -36.5t-29.5 -55.5t-10 -69.5t10 -69t30 -55.5t49 -37t67 -13.5q46 0 78 23.5t51 54.5l73 -56q-33 -51 -82.5 -78.5t-115.5 -29.5l-7 -46q42 -4 66 -28t24 -66
q0 -46 -28.5 -74t-80.5 -28q-32 0 -57 10.5t-42 29.5l39 45q10 -11 24.5 -19.5t32.5 -8.5q20 0 32 10.5t12 31.5q0 38 -41 42q-15 2 -26 0t-22 -7l-3 4l19 109q-47 8 -84 30.5t-63 56t-40 76.5t-14 93q0 57 17.5 104.5t50.5 82.5t80 54.5t105 19.5z" />
    <glyph glyph-name="egrave" unicode="&#xe8;" horiz-adv-x="530" 
d="M270 512q56 0 98.5 -20.5t71 -55.5t43 -81.5t14.5 -99.5v-39h-368q2 -69 41 -105.5t111 -36.5q50 0 83.5 19t52.5 45l68 -57q-36 -45 -85.5 -68t-118.5 -23q-58 0 -104.5 19.5t-79 54t-50 82t-17.5 104.5t17.5 105t49.5 83t76 54.5t97 19.5zM270 428q-61 0 -99 -36
t-42 -96h271q-2 60 -35.5 96t-94.5 36zM322 576h-99l-155 131h116z" />
    <glyph glyph-name="eacute" unicode="&#xe9;" horiz-adv-x="530" 
d="M270 512q56 0 98.5 -20.5t71 -55.5t43 -81.5t14.5 -99.5v-39h-368q2 -69 41 -105.5t111 -36.5q50 0 83.5 19t52.5 45l68 -57q-36 -45 -85.5 -68t-118.5 -23q-58 0 -104.5 19.5t-79 54t-50 82t-17.5 104.5t17.5 105t49.5 83t76 54.5t97 19.5zM270 428q-61 0 -99 -36
t-42 -96h271q-2 60 -35.5 96t-94.5 36zM310 576h-99l138 131h116z" />
    <glyph glyph-name="ecircumflex" unicode="&#xea;" horiz-adv-x="530" 
d="M270 512q56 0 98.5 -20.5t71 -55.5t43 -81.5t14.5 -99.5v-39h-368q2 -69 41 -105.5t111 -36.5q50 0 83.5 19t52.5 45l68 -57q-36 -45 -85.5 -68t-118.5 -23q-58 0 -104.5 19.5t-79 54t-50 82t-17.5 104.5t17.5 105t49.5 83t76 54.5t97 19.5zM270 428q-61 0 -99 -36
t-42 -96h271q-2 60 -35.5 96t-94.5 36zM423 576h-89l-65 65l-66 -65h-89l155 167z" />
    <glyph glyph-name="edieresis" unicode="&#xeb;" horiz-adv-x="530" 
d="M270 512q56 0 98.5 -20.5t71 -55.5t43 -81.5t14.5 -99.5v-39h-368q2 -69 41 -105.5t111 -36.5q50 0 83.5 19t52.5 45l68 -57q-36 -45 -85.5 -68t-118.5 -23q-58 0 -104.5 19.5t-79 54t-50 82t-17.5 104.5t17.5 105t49.5 83t76 54.5t97 19.5zM270 428q-61 0 -99 -36
t-42 -96h271q-2 60 -35.5 96t-94.5 36zM183 695q24 0 39.5 -15.5t15.5 -38.5t-15.5 -38.5t-39.5 -15.5q-23 0 -38.5 15.5t-15.5 38.5t15.5 38.5t38.5 15.5zM354 695q23 0 39 -15.5t16 -38.5t-16 -38.5t-39 -15.5t-38.5 15.5t-15.5 38.5t15.5 38.5t38.5 15.5z" />
    <glyph glyph-name="igrave" unicode="&#xec;" horiz-adv-x="253" 
d="M180 576h-99l-155 131h116zM175 0h-98v502h98v-502z" />
    <glyph glyph-name="iacute" unicode="&#xed;" horiz-adv-x="253" 
d="M167 576h-99l138 131h116zM175 0h-98v502h98v-502z" />
    <glyph glyph-name="icircumflex" unicode="&#xee;" horiz-adv-x="253" 
d="M175 0h-98v502h98v-502zM281 576h-89l-65 65l-66 -65h-89l155 167z" />
    <glyph glyph-name="idieresis" unicode="&#xef;" horiz-adv-x="253" 
d="M41 695q24 0 39.5 -15.5t15.5 -38.5t-15.5 -38.5t-39.5 -15.5q-23 0 -38.5 15.5t-15.5 38.5t15.5 38.5t38.5 15.5zM212 695q23 0 39 -15.5t16 -38.5t-16 -38.5t-39 -15.5t-38.5 15.5t-15.5 38.5t15.5 38.5t38.5 15.5zM175 0h-98v502h98v-502z" />
    <glyph glyph-name="eth" unicode="&#xf0;" horiz-adv-x="567" 
d="M285 485h9t8 -1l-59 88h-172v74h122l-76 114h119l76 -114h175v-74h-125l117 -174q27 -32 42 -73t15 -88q0 -54 -19 -99t-52.5 -78t-79.5 -51.5t-100 -18.5t-100 18.5t-79.5 51.5t-52 78t-18.5 99q0 53 18.5 98.5t52 78.5t79.5 52t100 19zM285 403q-33 0 -61 -12.5
t-48 -35t-31.5 -52.5t-11.5 -66t11.5 -66t31.5 -52t48 -34.5t61 -12.5t61 12.5t48.5 34.5t32 52t11.5 66t-11.5 66t-32 52.5t-48.5 35t-61 12.5z" />
    <glyph glyph-name="ntilde" unicode="&#xf1;" horiz-adv-x="583" 
d="M329 512q45 0 80.5 -15.5t60 -43.5t37 -68t12.5 -88v-297h-98v291q0 57 -31 92.5t-85 35.5q-45 0 -76 -23.5t-54 -56.5v-339h-98v502h89l4 -61q22 28 61.5 49.5t97.5 21.5zM236 717q32 0 49.5 -12t29.5 -27t22.5 -27t27.5 -12t24.5 20t7.5 52h64q0 -72 -29.5 -105.5
t-72.5 -33.5q-33 0 -49.5 12t-27.5 27t-21 27t-28 12q-19 0 -26.5 -20t-7.5 -52h-65q0 73 30 106t72 33z" />
    <glyph glyph-name="ograve" unicode="&#xf2;" 
d="M287 512q56 0 103 -19.5t81.5 -54.5t54 -83t19.5 -105t-19.5 -104.5t-54 -82t-81.5 -54t-103 -19.5t-103 19.5t-81.5 54t-53.5 82t-19 104.5t19 105t53.5 83t81.5 54.5t103 19.5zM287 425q-35 0 -64 -13t-50 -36.5t-32.5 -55.5t-11.5 -70t11.5 -69.5t32.5 -54.5t50 -36
t64 -13q34 0 63.5 13t50.5 36t33 54.5t12 69.5t-12 70t-33 55.5t-50.5 36.5t-63.5 13zM340 576h-99l-155 131h116z" />
    <glyph glyph-name="oacute" unicode="&#xf3;" 
d="M287 512q56 0 103 -19.5t81.5 -54.5t54 -83t19.5 -105t-19.5 -104.5t-54 -82t-81.5 -54t-103 -19.5t-103 19.5t-81.5 54t-53.5 82t-19 104.5t19 105t53.5 83t81.5 54.5t103 19.5zM287 425q-35 0 -64 -13t-50 -36.5t-32.5 -55.5t-11.5 -70t11.5 -69.5t32.5 -54.5t50 -36
t64 -13q34 0 63.5 13t50.5 36t33 54.5t12 69.5t-12 70t-33 55.5t-50.5 36.5t-63.5 13zM328 576h-99l138 131h116z" />
    <glyph glyph-name="ocircumflex" unicode="&#xf4;" 
d="M287 512q56 0 103 -19.5t81.5 -54.5t54 -83t19.5 -105t-19.5 -104.5t-54 -82t-81.5 -54t-103 -19.5t-103 19.5t-81.5 54t-53.5 82t-19 104.5t19 105t53.5 83t81.5 54.5t103 19.5zM287 425q-35 0 -64 -13t-50 -36.5t-32.5 -55.5t-11.5 -70t11.5 -69.5t32.5 -54.5t50 -36
t64 -13q34 0 63.5 13t50.5 36t33 54.5t12 69.5t-12 70t-33 55.5t-50.5 36.5t-63.5 13zM441 576h-89l-65 65l-66 -65h-89l155 167z" />
    <glyph glyph-name="otilde" unicode="&#xf5;" 
d="M287 512q56 0 103 -19.5t81.5 -54.5t54 -83t19.5 -105t-19.5 -104.5t-54 -82t-81.5 -54t-103 -19.5t-103 19.5t-81.5 54t-53.5 82t-19 104.5t19 105t53.5 83t81.5 54.5t103 19.5zM287 425q-35 0 -64 -13t-50 -36.5t-32.5 -55.5t-11.5 -70t11.5 -69.5t32.5 -54.5t50 -36
t64 -13q34 0 63.5 13t50.5 36t33 54.5t12 69.5t-12 70t-33 55.5t-50.5 36.5t-63.5 13zM225 717q32 0 49.5 -12t29.5 -27t22.5 -27t27.5 -12t24.5 20t7.5 52h64q0 -72 -29.5 -105.5t-72.5 -33.5q-33 0 -49.5 12t-27.5 27t-21 27t-28 12q-19 0 -26.5 -20t-7.5 -52h-65
q0 73 30 106t72 33z" />
    <glyph glyph-name="odieresis" unicode="&#xf6;" 
d="M287 512q56 0 103 -19.5t81.5 -54.5t54 -83t19.5 -105t-19.5 -104.5t-54 -82t-81.5 -54t-103 -19.5t-103 19.5t-81.5 54t-53.5 82t-19 104.5t19 105t53.5 83t81.5 54.5t103 19.5zM287 425q-35 0 -64 -13t-50 -36.5t-32.5 -55.5t-11.5 -70t11.5 -69.5t32.5 -54.5t50 -36
t64 -13q34 0 63.5 13t50.5 36t33 54.5t12 69.5t-12 70t-33 55.5t-50.5 36.5t-63.5 13zM201 695q24 0 39.5 -15.5t15.5 -38.5t-15.5 -38.5t-39.5 -15.5q-23 0 -38.5 15.5t-15.5 38.5t15.5 38.5t38.5 15.5zM372 695q23 0 39 -15.5t16 -38.5t-16 -38.5t-39 -15.5t-38.5 15.5
t-15.5 38.5t15.5 38.5t38.5 15.5z" />
    <glyph glyph-name="divide" unicode="&#xf7;" horiz-adv-x="486" 
d="M242 604q28 0 45.5 -18t17.5 -46q0 -26 -17.5 -44t-45.5 -18q-27 0 -44.5 18t-17.5 44q0 28 17.5 46t44.5 18zM242 219q28 0 45.5 -17.5t17.5 -45.5q0 -27 -17.5 -45t-45.5 -18q-27 0 -44.5 18t-17.5 45t17.5 45t44.5 18zM446 305h-407v90h407v-90z" />
    <glyph glyph-name="oslash" unicode="&#xf8;" 
d="M287 512q54 0 99 -18l43 78h66l-57 -106q50 -35 78.5 -91t28.5 -125q0 -57 -19.5 -104.5t-54 -82t-81.5 -54t-103 -19.5q-26 0 -50.5 4.5t-46.5 12.5l-42 -77h-67l56 104q-50 34 -78.5 90t-28.5 126q0 57 19 105t53.5 83t81.5 54.5t103 19.5zM287 430q-36 0 -65.5 -13.5
t-51.5 -37.5t-34 -57t-12 -72q0 -43 15 -78.5t41 -59.5l166 307q-28 11 -59 11zM450 250q0 42 -14.5 77.5t-40.5 59.5l-165 -305q24 -10 57 -10q35 0 65 13.5t51.5 37t34 56t12.5 71.5z" />
    <glyph glyph-name="ugrave" unicode="&#xf9;" 
d="M498 0h-89l-4 61q-23 -29 -61.5 -50t-99.5 -21q-43 0 -76.5 15.5t-56 43t-34.5 67t-12 87.5v299h98v-294q0 -56 28 -90.5t78 -34.5q47 0 77.5 24t53.5 56v339h98v-502zM334 576h-99l-155 131h116z" />
    <glyph glyph-name="uacute" unicode="&#xfa;" 
d="M498 0h-89l-4 61q-23 -29 -61.5 -50t-99.5 -21q-43 0 -76.5 15.5t-56 43t-34.5 67t-12 87.5v299h98v-294q0 -56 28 -90.5t78 -34.5q47 0 77.5 24t53.5 56v339h98v-502zM321 576h-99l138 131h116z" />
    <glyph glyph-name="ucircumflex" unicode="&#xfb;" 
d="M498 0h-89l-4 61q-23 -29 -61.5 -50t-99.5 -21q-43 0 -76.5 15.5t-56 43t-34.5 67t-12 87.5v299h98v-294q0 -56 28 -90.5t78 -34.5q47 0 77.5 24t53.5 56v339h98v-502zM435 576h-89l-65 65l-66 -65h-89l155 167z" />
    <glyph glyph-name="udieresis" unicode="&#xfc;" 
d="M498 0h-89l-4 61q-23 -29 -61.5 -50t-99.5 -21q-43 0 -76.5 15.5t-56 43t-34.5 67t-12 87.5v299h98v-294q0 -56 28 -90.5t78 -34.5q47 0 77.5 24t53.5 56v339h98v-502zM195 695q24 0 39.5 -15.5t15.5 -38.5t-15.5 -38.5t-39.5 -15.5q-23 0 -38.5 15.5t-15.5 38.5
t15.5 38.5t38.5 15.5zM366 695q23 0 39 -15.5t16 -38.5t-16 -38.5t-39 -15.5t-38.5 15.5t-15.5 38.5t15.5 38.5t38.5 15.5z" />
    <glyph glyph-name="yacute" unicode="&#xfd;" horiz-adv-x="552" 
d="M170 -230h-112l165 312l-207 420h109l151 -310l151 310h110zM309 576h-99l138 131h116z" />
    <glyph glyph-name="thorn" unicode="&#xfe;" horiz-adv-x="592" 
d="M175 448q23 26 61 45t95 19q52 0 94.5 -19.5t73 -54.5t47.5 -82.5t17 -104.5t-17 -104.5t-47.5 -82.5t-73 -54.5t-94.5 -19.5q-57 0 -95 19t-61 45v-284h-98v990h98v-312zM313 425q-51 0 -83 -24t-55 -61v-178q23 -37 55 -61t83 -24q33 0 60.5 12.5t48 35.5t31.5 55
t11 71t-11 71t-31.5 55t-48 35.5t-60.5 12.5z" />
    <glyph glyph-name="ydieresis" unicode="&#xff;" horiz-adv-x="552" 
d="M170 -230h-112l165 312l-207 420h109l151 -310l151 310h110zM182 695q24 0 39.5 -15.5t15.5 -38.5t-15.5 -38.5t-39.5 -15.5q-23 0 -38.5 15.5t-15.5 38.5t15.5 38.5t38.5 15.5zM353 695q23 0 39 -15.5t16 -38.5t-16 -38.5t-39 -15.5t-38.5 15.5t-15.5 38.5t15.5 38.5
t38.5 15.5z" />
    <glyph glyph-name="Amacron" unicode="&#x100;" horiz-adv-x="698" 
d="M222 239h254l-127 284zM689 0h-109l-66 150h-330l-66 -150h-109l338 748h4zM478 788h-260v69h260v-69z" />
    <glyph glyph-name="amacron" unicode="&#x101;" horiz-adv-x="593" 
d="M262 512q60 0 99.5 -21t61.5 -50l4 61h89v-502h-89l-4 61q-22 -29 -61.5 -50t-99.5 -21q-52 0 -94.5 19.5t-73 54.5t-47.5 82.5t-17 104.5t17 104.5t47.5 82.5t73 54.5t94.5 19.5zM280 425q-33 0 -60.5 -12.5t-48 -35.5t-31.5 -55t-11 -71t11 -71t31.5 -55t48 -35.5
t60.5 -12.5q51 0 83 24t55 61v178q-23 37 -55 61t-83 24zM423 597h-260v68h260v-68z" />
    <glyph glyph-name="Abreve" unicode="&#x102;" horiz-adv-x="698" 
d="M222 239h254l-127 284zM689 0h-109l-66 150h-330l-66 -150h-109l338 748h4zM501 917q0 -32 -11.5 -58.5t-32 -45.5t-48 -30t-60.5 -11t-61 11t-48.5 30t-32 45.5t-11.5 58.5h71q0 -32 22.5 -55t59.5 -23t59 23t22 55h71z" />
    <glyph glyph-name="abreve" unicode="&#x103;" horiz-adv-x="593" 
d="M262 512q60 0 99.5 -21t61.5 -50l4 61h89v-502h-89l-4 61q-22 -29 -61.5 -50t-99.5 -21q-52 0 -94.5 19.5t-73 54.5t-47.5 82.5t-17 104.5t17 104.5t47.5 82.5t73 54.5t94.5 19.5zM280 425q-33 0 -60.5 -12.5t-48 -35.5t-31.5 -55t-11 -71t11 -71t31.5 -55t48 -35.5
t60.5 -12.5q51 0 83 24t55 61v178q-23 37 -55 61t-83 24zM445 724q0 -32 -11.5 -59.5t-32 -47.5t-48 -31t-60.5 -11t-61 11t-48.5 31t-32 47.5t-11.5 59.5h72q0 -35 22.5 -58t58.5 -23q35 0 57.5 23t22.5 58h72z" />
    <glyph glyph-name="Aogonek" unicode="&#x104;" horiz-adv-x="698" 
d="M689 0h-21q-21 -8 -33 -24.5t-12 -39.5q0 -33 20 -50t49 -17q11 0 19.5 2.5t14.5 5.5l21 -57q-21 -10 -57 -10q-28 0 -52 8t-42 24t-28.5 39.5t-10.5 54.5q0 41 21 68l-64 146h-330l-66 -150h-109l338 748h4zM222 239h254l-127 284z" />
    <glyph glyph-name="aogonek" unicode="&#x105;" horiz-adv-x="593" 
d="M262 512q60 0 99.5 -21t61.5 -50l4 61h89v-502h-11q-21 -8 -33 -24.5t-12 -39.5q0 -33 20 -50t49 -17q11 0 19.5 2.5t14.5 5.5l21 -57q-21 -10 -57 -10q-28 0 -52 8t-42 24t-28.5 39.5t-10.5 54.5q0 27 8.5 47t23.5 34l-3 44q-22 -29 -61.5 -50t-99.5 -21
q-52 0 -94.5 19.5t-73 54.5t-47.5 82.5t-17 104.5t17 104.5t47.5 82.5t73 54.5t94.5 19.5zM280 425q-33 0 -60.5 -12.5t-48 -35.5t-31.5 -55t-11 -71t11 -71t31.5 -55t48 -35.5t60.5 -12.5q51 0 83 24t55 61v178q-23 37 -55 61t-83 24z" />
    <glyph glyph-name="Cacute" unicode="&#x106;" horiz-adv-x="680" 
d="M403 748q83 0 146 -27.5t114 -79.5l-65 -74q-35 38 -84 62.5t-111 24.5q-60 0 -109 -21.5t-84 -60t-54.5 -91t-19.5 -114.5t19.5 -114.5t54.5 -90.5t84 -59.5t109 -21.5q64 0 114.5 25.5t85.5 66.5l64 -76q-52 -57 -118 -83.5t-146 -26.5q-81 0 -149 28.5t-117 79.5
t-76.5 120.5t-27.5 151.5t27.5 152t76.5 121t117 79.5t149 28.5zM440 782h-108l133 115h121z" />
    <glyph glyph-name="cacute" unicode="&#x107;" horiz-adv-x="506" 
d="M283 512q68 0 117.5 -28.5t83.5 -79.5l-73 -56q-19 31 -50 54.5t-77 23.5q-38 0 -67 -13.5t-48.5 -36.5t-29.5 -55.5t-10 -69.5t10 -69t30 -55.5t49 -37t67 -13.5q46 0 78 23.5t51 54.5l73 -56q-34 -51 -84.5 -79.5t-117.5 -28.5q-59 0 -106 19.5t-80 54.5t-51 82.5
t-18 104.5t17.5 104.5t50.5 82.5t80 54.5t105 19.5zM320 576h-99l138 131h116z" />
    <glyph glyph-name="Ccircumflex" unicode="&#x108;" horiz-adv-x="680" 
d="M403 748q83 0 146 -27.5t114 -79.5l-65 -74q-35 38 -84 62.5t-111 24.5q-60 0 -109 -21.5t-84 -60t-54.5 -91t-19.5 -114.5t19.5 -114.5t54.5 -90.5t84 -59.5t109 -21.5q64 0 114.5 25.5t85.5 66.5l64 -76q-52 -57 -118 -83.5t-146 -26.5q-81 0 -149 28.5t-117 79.5
t-76.5 120.5t-27.5 151.5t27.5 152t76.5 121t117 79.5t149 28.5zM555 781h-91l-68 61l-68 -61h-91l159 145z" />
    <glyph glyph-name="ccircumflex" unicode="&#x109;" horiz-adv-x="506" 
d="M283 512q68 0 117.5 -28.5t83.5 -79.5l-73 -56q-19 31 -50 54.5t-77 23.5q-38 0 -67 -13.5t-48.5 -36.5t-29.5 -55.5t-10 -69.5t10 -69t30 -55.5t49 -37t67 -13.5q46 0 78 23.5t51 54.5l73 -56q-34 -51 -84.5 -79.5t-117.5 -28.5q-59 0 -106 19.5t-80 54.5t-51 82.5
t-18 104.5t17.5 104.5t50.5 82.5t80 54.5t105 19.5zM433 576h-89l-65 65l-66 -65h-89l155 167z" />
    <glyph glyph-name="Cdotaccent" unicode="&#x10a;" horiz-adv-x="680" 
d="M403 748q83 0 146 -27.5t114 -79.5l-65 -74q-35 38 -84 62.5t-111 24.5q-60 0 -109 -21.5t-84 -60t-54.5 -91t-19.5 -114.5t19.5 -114.5t54.5 -90.5t84 -59.5t109 -21.5q64 0 114.5 25.5t85.5 66.5l64 -76q-52 -57 -118 -83.5t-146 -26.5q-81 0 -149 28.5t-117 79.5
t-76.5 120.5t-27.5 151.5t27.5 152t76.5 121t117 79.5t149 28.5zM396 900q26 0 43 -17t17 -43t-17 -42.5t-43 -16.5t-42.5 16.5t-16.5 42.5t16.5 43t42.5 17z" />
    <glyph glyph-name="cdotaccent" unicode="&#x10b;" horiz-adv-x="506" 
d="M283 512q68 0 117.5 -28.5t83.5 -79.5l-73 -56q-19 31 -50 54.5t-77 23.5q-38 0 -67 -13.5t-48.5 -36.5t-29.5 -55.5t-10 -69.5t10 -69t30 -55.5t49 -37t67 -13.5q46 0 78 23.5t51 54.5l73 -56q-34 -51 -84.5 -79.5t-117.5 -28.5q-59 0 -106 19.5t-80 54.5t-51 82.5
t-18 104.5t17.5 104.5t50.5 82.5t80 54.5t105 19.5zM279 722q28 0 46 -18t18 -46t-18 -45.5t-46 -17.5t-46 17.5t-18 45.5t18 46t46 18z" />
    <glyph glyph-name="Ccaron" unicode="&#x10c;" horiz-adv-x="680" 
d="M403 748q83 0 146 -27.5t114 -79.5l-65 -74q-35 38 -84 62.5t-111 24.5q-60 0 -109 -21.5t-84 -60t-54.5 -91t-19.5 -114.5t19.5 -114.5t54.5 -90.5t84 -59.5t109 -21.5q64 0 114.5 25.5t85.5 66.5l64 -76q-52 -57 -118 -83.5t-146 -26.5q-81 0 -149 28.5t-117 79.5
t-76.5 120.5t-27.5 151.5t27.5 152t76.5 121t117 79.5t149 28.5zM396 773l-159 144h91l68 -60l68 60h91z" />
    <glyph glyph-name="ccaron" unicode="&#x10d;" horiz-adv-x="506" 
d="M283 512q68 0 117.5 -28.5t83.5 -79.5l-73 -56q-19 31 -50 54.5t-77 23.5q-38 0 -67 -13.5t-48.5 -36.5t-29.5 -55.5t-10 -69.5t10 -69t30 -55.5t49 -37t67 -13.5q46 0 78 23.5t51 54.5l73 -56q-34 -51 -84.5 -79.5t-117.5 -28.5q-59 0 -106 19.5t-80 54.5t-51 82.5
t-18 104.5t17.5 104.5t50.5 82.5t80 54.5t105 19.5zM279 570l-155 167h89l66 -65l65 65h89z" />
    <glyph glyph-name="Dcaron" unicode="&#x10e;" horiz-adv-x="732" 
d="M304 735q93 0 166.5 -24.5t124 -72t77.5 -115.5t27 -155t-26.5 -155.5t-77 -115.5t-124 -72t-167.5 -25h-222v735h222zM184 640v-546h117q144 0 219.5 71.5t75.5 202.5q0 130 -76 201t-219 71h-117zM336 763l-159 144h91l68 -60l68 60h91z" />
    <glyph glyph-name="dcaron" unicode="&#x10f;" horiz-adv-x="752" 
d="M516 0h-89l-4 61q-22 -29 -61.5 -50t-99.5 -21q-52 0 -94.5 19.5t-73 54.5t-47.5 82.5t-17 104.5t17 104.5t47.5 82.5t73 54.5t94.5 19.5q57 0 95 -19t61 -45v312h98v-760zM280 425q-33 0 -60.5 -12.5t-48 -35.5t-31.5 -55t-11 -71t11 -71t31.5 -55t48 -35.5t60.5 -12.5
q51 0 83 24t55 61v178q-23 37 -55 61t-83 24zM642 752q30 0 49.5 -19.5t19.5 -49.5q0 -12 -3.5 -22t-8.5 -19l-78 -159h-4v265q11 4 25 4z" />
    <glyph glyph-name="Dcroat" unicode="&#x110;" horiz-adv-x="750" 
d="M322 735q93 0 166.5 -24.5t124 -72t77.5 -115.5t27 -155t-26.5 -155.5t-77 -115.5t-124 -72t-167.5 -25h-222v343h-87v69h87v323h222zM202 640v-228h114v-69h-114v-249h117q144 0 219.5 71.5t75.5 202.5q0 130 -76 201t-219 71h-117z" />
    <glyph glyph-name="dcroat" unicode="&#x111;" horiz-adv-x="607" 
d="M516 653h90v-69h-90v-584h-89l-4 61q-22 -29 -61.5 -50t-99.5 -21q-52 0 -94.5 19.5t-73 54.5t-47.5 82.5t-17 104.5t17 104.5t47.5 82.5t73 54.5t94.5 19.5q57 0 95 -19t61 -45v136h-116v69h116v107h98v-107zM280 425q-33 0 -60.5 -12.5t-48 -35.5t-31.5 -55t-11 -71
t11 -71t31.5 -55t48 -35.5t60.5 -12.5q51 0 83 24t55 61v178q-23 37 -55 61t-83 24z" />
    <glyph glyph-name="Emacron" unicode="&#x112;" horiz-adv-x="577" 
d="M537 641h-353v-223h310v-91h-310v-233h361v-94h-463v735h455v-94zM448 788h-260v69h260v-69z" />
    <glyph glyph-name="emacron" unicode="&#x113;" horiz-adv-x="530" 
d="M270 512q56 0 98.5 -20.5t71 -55.5t43 -81.5t14.5 -99.5v-39h-368q2 -69 41 -105.5t111 -36.5q50 0 83.5 19t52.5 45l68 -57q-36 -45 -85.5 -68t-118.5 -23q-58 0 -104.5 19.5t-79 54t-50 82t-17.5 104.5t17.5 105t49.5 83t76 54.5t97 19.5zM270 428q-61 0 -99 -36
t-42 -96h271q-2 60 -35.5 96t-94.5 36zM399 597h-260v68h260v-68z" />
    <glyph glyph-name="Ebreve" unicode="&#x114;" horiz-adv-x="577" 
d="M537 641h-353v-223h310v-91h-310v-233h361v-94h-463v735h455v-94zM470 917q0 -32 -11.5 -58.5t-32 -45.5t-48 -30t-60.5 -11t-61 11t-48.5 30t-32 45.5t-11.5 58.5h71q0 -32 22.5 -55t59.5 -23t59 23t22 55h71z" />
    <glyph glyph-name="ebreve" unicode="&#x115;" horiz-adv-x="530" 
d="M270 512q56 0 98.5 -20.5t71 -55.5t43 -81.5t14.5 -99.5v-39h-368q2 -69 41 -105.5t111 -36.5q50 0 83.5 19t52.5 45l68 -57q-36 -45 -85.5 -68t-118.5 -23q-58 0 -104.5 19.5t-79 54t-50 82t-17.5 104.5t17.5 105t49.5 83t76 54.5t97 19.5zM270 428q-61 0 -99 -36
t-42 -96h271q-2 60 -35.5 96t-94.5 36zM421 724q0 -32 -11.5 -59.5t-32 -47.5t-48 -31t-60.5 -11t-61 11t-48.5 31t-32 47.5t-11.5 59.5h72q0 -35 22.5 -58t58.5 -23q35 0 57.5 23t22.5 58h72z" />
    <glyph glyph-name="Edotaccent" unicode="&#x116;" horiz-adv-x="577" 
d="M537 641h-353v-223h310v-91h-310v-233h361v-94h-463v735h455v-94zM317 890q26 0 43 -17t17 -43t-17 -42.5t-43 -16.5t-42.5 16.5t-16.5 42.5t16.5 43t42.5 17z" />
    <glyph glyph-name="edotaccent" unicode="&#x117;" horiz-adv-x="530" 
d="M270 512q56 0 98.5 -20.5t71 -55.5t43 -81.5t14.5 -99.5v-39h-368q2 -69 41 -105.5t111 -36.5q50 0 83.5 19t52.5 45l68 -57q-36 -45 -85.5 -68t-118.5 -23q-58 0 -104.5 19.5t-79 54t-50 82t-17.5 104.5t17.5 105t49.5 83t76 54.5t97 19.5zM270 428q-61 0 -99 -36
t-42 -96h271q-2 60 -35.5 96t-94.5 36zM269 722q28 0 46 -18t18 -46t-18 -45.5t-46 -17.5t-46 17.5t-18 45.5t18 46t46 18z" />
    <glyph glyph-name="Eogonek" unicode="&#x118;" horiz-adv-x="577" 
d="M537 641h-353v-223h310v-91h-310v-233h361v-94h-55q-21 -8 -33 -24.5t-12 -39.5q0 -33 20 -50t49 -17q11 0 19.5 2.5t14.5 5.5l21 -57q-21 -10 -57 -10q-28 0 -52 8t-42 24t-28.5 39.5t-10.5 54.5q0 38 18 64h-315v735h455v-94z" />
    <glyph glyph-name="eogonek" unicode="&#x119;" horiz-adv-x="530" 
d="M270 512q56 0 98.5 -20.5t71 -55.5t43 -81.5t14.5 -99.5v-39h-368q2 -69 41 -105.5t111 -36.5q50 0 83.5 19t52.5 45l68 -57q-40 -50 -99 -73q-25 -19 -25 -53q0 -33 20 -50t49 -17q11 0 19.5 2.5t14.5 5.5l21 -57q-21 -10 -57 -10q-28 0 -52 8t-42 24t-28.5 39.5
t-10.5 54.5q0 21 4 36q-5 -1 -9 -1h-9q-58 0 -104.5 19.5t-79 54t-50 82t-17.5 104.5t17.5 105t49.5 83t76 54.5t97 19.5zM270 428q-61 0 -99 -36t-42 -96h271q-2 60 -35.5 96t-94.5 36z" />
    <glyph glyph-name="Ecaron" unicode="&#x11a;" horiz-adv-x="577" 
d="M537 641h-353v-223h310v-91h-310v-233h361v-94h-463v735h455v-94zM317 763l-159 144h91l68 -60l68 60h91z" />
    <glyph glyph-name="ecaron" unicode="&#x11b;" horiz-adv-x="530" 
d="M270 512q56 0 98.5 -20.5t71 -55.5t43 -81.5t14.5 -99.5v-39h-368q2 -69 41 -105.5t111 -36.5q50 0 83.5 19t52.5 45l68 -57q-36 -45 -85.5 -68t-118.5 -23q-58 0 -104.5 19.5t-79 54t-50 82t-17.5 104.5t17.5 105t49.5 83t76 54.5t97 19.5zM270 428q-61 0 -99 -36
t-42 -96h271q-2 60 -35.5 96t-94.5 36zM269 570l-155 167h89l66 -65l65 65h89z" />
    <glyph glyph-name="Gcircumflex" unicode="&#x11c;" horiz-adv-x="740" 
d="M403 748q83 0 146 -27.5t114 -79.5l-65 -74q-35 38 -84 62.5t-111 24.5q-60 0 -109 -21.5t-84 -60t-54.5 -91t-19.5 -114.5t20 -114.5t56.5 -90.5t87.5 -59.5t113 -21.5q50 0 91.5 14t74.5 38v165h-187v89h289v-304q-104 -96 -268 -96q-83 0 -153 28.5t-120.5 79.5
t-78.5 120.5t-28 151.5t27.5 152t76.5 121t117 79.5t149 28.5zM556 781h-91l-68 61l-68 -61h-91l159 145z" />
    <glyph glyph-name="gcircumflex" unicode="&#x11d;" horiz-adv-x="594" 
d="M262 512q60 0 99.5 -21t61.5 -50l4 61h89v-489q0 -59 -18.5 -106t-52 -79.5t-81 -50t-105.5 -17.5q-78 0 -134.5 28.5t-96.5 76.5l65 64q30 -36 70 -59t95 -23q74 0 117 44.5t43 119.5v43q-23 -26 -61 -45t-95 -19q-52 0 -94.5 19.5t-73 54.5t-47.5 82.5t-17 104.5
t17 104.5t47.5 82.5t73 54.5t94.5 19.5zM280 425q-33 0 -60.5 -12.5t-48 -35.5t-31.5 -55t-11 -71t11 -71t31.5 -55t48 -35.5t60.5 -12.5q51 0 83 24t55 61v178q-23 37 -55 61t-83 24zM435 576h-89l-65 65l-66 -65h-89l155 167z" />
    <glyph glyph-name="Gbreve" unicode="&#x11e;" horiz-adv-x="740" 
d="M403 748q83 0 146 -27.5t114 -79.5l-65 -74q-35 38 -84 62.5t-111 24.5q-60 0 -109 -21.5t-84 -60t-54.5 -91t-19.5 -114.5t20 -114.5t56.5 -90.5t87.5 -59.5t113 -21.5q50 0 91.5 14t74.5 38v165h-187v89h289v-304q-104 -96 -268 -96q-83 0 -153 28.5t-120.5 79.5
t-78.5 120.5t-28 151.5t27.5 152t76.5 121t117 79.5t149 28.5zM549 927q0 -32 -11.5 -58.5t-32 -45.5t-48 -30t-60.5 -11t-61 11t-48.5 30t-32 45.5t-11.5 58.5h71q0 -32 22.5 -55t59.5 -23t59 23t22 55h71z" />
    <glyph glyph-name="gbreve" unicode="&#x11f;" horiz-adv-x="594" 
d="M262 512q60 0 99.5 -21t61.5 -50l4 61h89v-489q0 -59 -18.5 -106t-52 -79.5t-81 -50t-105.5 -17.5q-78 0 -134.5 28.5t-96.5 76.5l65 64q30 -36 70 -59t95 -23q74 0 117 44.5t43 119.5v43q-23 -26 -61 -45t-95 -19q-52 0 -94.5 19.5t-73 54.5t-47.5 82.5t-17 104.5
t17 104.5t47.5 82.5t73 54.5t94.5 19.5zM280 425q-33 0 -60.5 -12.5t-48 -35.5t-31.5 -55t-11 -71t11 -71t31.5 -55t48 -35.5t60.5 -12.5q51 0 83 24t55 61v178q-23 37 -55 61t-83 24zM433 724q0 -32 -11.5 -59.5t-32 -47.5t-48 -31t-60.5 -11t-61 11t-48.5 31t-32 47.5
t-11.5 59.5h72q0 -35 22.5 -58t58.5 -23q35 0 57.5 23t22.5 58h72z" />
    <glyph glyph-name="Gdotaccent" unicode="&#x120;" horiz-adv-x="740" 
d="M403 748q83 0 146 -27.5t114 -79.5l-65 -74q-35 38 -84 62.5t-111 24.5q-60 0 -109 -21.5t-84 -60t-54.5 -91t-19.5 -114.5t20 -114.5t56.5 -90.5t87.5 -59.5t113 -21.5q50 0 91.5 14t74.5 38v165h-187v89h289v-304q-104 -96 -268 -96q-83 0 -153 28.5t-120.5 79.5
t-78.5 120.5t-28 151.5t27.5 152t76.5 121t117 79.5t149 28.5zM397 900q26 0 43 -17t17 -43t-17 -42.5t-43 -16.5t-42.5 16.5t-16.5 42.5t16.5 43t42.5 17z" />
    <glyph glyph-name="gdotaccent" unicode="&#x121;" horiz-adv-x="594" 
d="M262 512q60 0 99.5 -21t61.5 -50l4 61h89v-489q0 -59 -18.5 -106t-52 -79.5t-81 -50t-105.5 -17.5q-78 0 -134.5 28.5t-96.5 76.5l65 64q30 -36 70 -59t95 -23q74 0 117 44.5t43 119.5v43q-23 -26 -61 -45t-95 -19q-52 0 -94.5 19.5t-73 54.5t-47.5 82.5t-17 104.5
t17 104.5t47.5 82.5t73 54.5t94.5 19.5zM280 425q-33 0 -60.5 -12.5t-48 -35.5t-31.5 -55t-11 -71t11 -71t31.5 -55t48 -35.5t60.5 -12.5q51 0 83 24t55 61v178q-23 37 -55 61t-83 24zM280 722q28 0 46 -18t18 -46t-18 -45.5t-46 -17.5t-46 17.5t-18 45.5t18 46t46 18z" />
    <glyph glyph-name="Gcommaaccent" unicode="&#x122;" horiz-adv-x="740" 
d="M403 748q83 0 146 -27.5t114 -79.5l-65 -74q-35 38 -84 62.5t-111 24.5q-60 0 -109 -21.5t-84 -60t-54.5 -91t-19.5 -114.5t20 -114.5t56.5 -90.5t87.5 -59.5t113 -21.5q50 0 91.5 14t74.5 38v165h-187v89h289v-304q-104 -96 -268 -96q-83 0 -153 28.5t-120.5 79.5
t-78.5 120.5t-28 151.5t27.5 152t76.5 121t117 79.5t149 28.5zM382 -51q30 0 49.5 -19.5t19.5 -49.5q0 -24 -12 -40l-78 -137h-4v242q11 4 25 4z" />
    <glyph glyph-name="gcommaaccent" unicode="&#x123;" horiz-adv-x="594" 
d="M262 512q60 0 99.5 -21t61.5 -50l4 61h89v-489q0 -59 -18.5 -106t-52 -79.5t-81 -50t-105.5 -17.5q-78 0 -134.5 28.5t-96.5 76.5l65 64q30 -36 70 -59t95 -23q74 0 117 44.5t43 119.5v43q-23 -26 -61 -45t-95 -19q-52 0 -94.5 19.5t-73 54.5t-47.5 82.5t-17 104.5
t17 104.5t47.5 82.5t73 54.5t94.5 19.5zM280 425q-33 0 -60.5 -12.5t-48 -35.5t-31.5 -55t-11 -71t11 -71t31.5 -55t48 -35.5t60.5 -12.5q51 0 83 24t55 61v178q-23 37 -55 61t-83 24zM336 568q-13 -5 -24 -5q-30 0 -50 20t-20 50q0 12 4 22t9 18l77 159h4v-264z" />
    <glyph glyph-name="Hcircumflex" unicode="&#x124;" horiz-adv-x="733" 
d="M651 0h-102v329h-365v-329h-102v735h102v-312h365v312h102v-735zM525 771h-91l-68 61l-68 -61h-91l159 145z" />
    <glyph glyph-name="hcircumflex" unicode="&#x125;" horiz-adv-x="583" 
d="M175 447q26 29 61.5 47t92.5 18q45 0 80.5 -15.5t60 -43.5t37 -68t12.5 -88v-297h-98v291q0 57 -31 92.5t-85 35.5q-45 0 -76 -23.5t-54 -56.5v-339h-98v760h98v-313zM291 781h-91l-68 61l-68 -61h-91l159 145z" />
    <glyph glyph-name="Hbar" unicode="&#x126;" horiz-adv-x="758" 
d="M663 603h83v-69h-83v-534h-102v324h-365v-324h-102v534h-82v69h82v132h102v-132h365v132h102v-132zM561 414v120h-365v-120h365z" />
    <glyph glyph-name="hbar" unicode="&#x127;" horiz-adv-x="599" 
d="M190 653h114v-69h-114v-137q26 29 61.5 47t92.5 18q45 0 80.5 -15.5t60 -43.5t37 -68t12.5 -88v-297h-98v291q0 57 -31 92.5t-85 35.5q-45 0 -76 -23.5t-54 -56.5v-339h-98v584h-92v69h92v107h98v-107z" />
    <glyph glyph-name="Itilde" unicode="&#x128;" horiz-adv-x="266" 
d="M184 0h-102v735h102v-735zM72 915q32 0 49.5 -12t29.5 -27t22.5 -27t27.5 -12t24.5 20t7.5 52h64q0 -72 -29.5 -105.5t-72.5 -33.5q-33 0 -49.5 12t-27.5 27t-21 27t-28 12q-19 0 -26.5 -20t-7.5 -52h-65q0 73 30 106t72 33z" />
    <glyph glyph-name="itilde" unicode="&#x129;" horiz-adv-x="253" 
d="M65 717q32 0 49.5 -12t29.5 -27t22.5 -27t27.5 -12t24.5 20t7.5 52h64q0 -72 -29.5 -105.5t-72.5 -33.5q-33 0 -49.5 12t-27.5 27t-21 27t-28 12q-19 0 -26.5 -20t-7.5 -52h-65q0 73 30 106t72 33zM175 0h-98v502h98v-502z" />
    <glyph glyph-name="Imacron" unicode="&#x12a;" horiz-adv-x="266" 
d="M184 0h-102v735h102v-735zM263 788h-260v69h260v-69z" />
    <glyph glyph-name="imacron" unicode="&#x12b;" horiz-adv-x="253" 
d="M257 597h-260v68h260v-68zM175 0h-98v502h98v-502z" />
    <glyph glyph-name="Ibreve" unicode="&#x12c;" horiz-adv-x="266" 
d="M184 0h-102v735h102v-735zM286 917q0 -32 -11.5 -58.5t-32 -45.5t-48 -30t-60.5 -11t-61 11t-48.5 30t-32 45.5t-11.5 58.5h71q0 -32 22.5 -55t59.5 -23t59 23t22 55h71z" />
    <glyph glyph-name="ibreve" unicode="&#x12d;" horiz-adv-x="253" 
d="M279 724q0 -32 -11.5 -59.5t-32 -47.5t-48 -31t-60.5 -11t-61 11t-48.5 31t-32 47.5t-11.5 59.5h72q0 -35 22.5 -58t58.5 -23q35 0 57.5 23t22.5 58h72zM175 0h-98v502h98v-502z" />
    <glyph glyph-name="Iogonek" unicode="&#x12e;" horiz-adv-x="266" 
d="M184 0h-43q-21 -8 -33 -24.5t-12 -39.5q0 -33 20 -50t49 -17q11 0 19.5 2.5t14.5 5.5l21 -57q-21 -10 -57 -10q-28 0 -52 8t-42 24t-28.5 39.5t-10.5 54.5q0 35 14 58t38 39v702h102v-735z" />
    <glyph glyph-name="iogonek" unicode="&#x12f;" horiz-adv-x="253" 
d="M175 0h-20q-21 -8 -33 -24.5t-12 -39.5q0 -33 20 -50t49 -17q11 0 19.5 2.5t14.5 5.5l21 -57q-21 -10 -57 -10q-28 0 -52 8t-42 24t-28.5 39.5t-10.5 54.5q0 28 8.5 48t24.5 34v484h98v-502zM127 728q27 0 45.5 -18.5t18.5 -45.5q0 -28 -18.5 -46t-45.5 -18q-28 0 -46 18
t-18 46q0 27 18 45.5t46 18.5z" />
    <glyph glyph-name="Idotaccent" unicode="&#x130;" horiz-adv-x="266" 
d="M184 0h-102v735h102v-735zM132 890q26 0 43 -17t17 -43t-17 -42.5t-43 -16.5t-42.5 16.5t-16.5 42.5t16.5 43t42.5 17z" />
    <glyph glyph-name="dotlessi" unicode="&#x131;" horiz-adv-x="253" 
d="M175 0h-98v502h98v-502z" />
    <glyph glyph-name="Jcircumflex" unicode="&#x134;" horiz-adv-x="540" 
d="M469 210q0 -51 -16.5 -92t-45.5 -70.5t-70.5 -45t-90.5 -15.5q-45 0 -86 15.5t-72 46t-49.5 75t-18.5 102.5h100q0 -69 33 -107t90 -38q58 0 91 35.5t33 98.5v520h102v-525zM573 771h-91l-68 61l-68 -61h-91l159 145z" />
    <glyph glyph-name="jcircumflex" unicode="&#x135;" horiz-adv-x="253" 
d="M175 -57q0 -39 -13.5 -72.5t-38.5 -58t-59 -38.5t-74 -14q-48 0 -85.5 16.5t-66.5 45.5l64 66q15 -17 36 -29t50 -12q40 0 64.5 24.5t24.5 64.5v566h98v-559zM281 576h-89l-65 65l-66 -65h-89l155 167z" />
    <glyph glyph-name="Kcommaaccent" unicode="&#x136;" horiz-adv-x="667" 
d="M394 381l264 -381h-123l-199 289l-175 -289h-79v735h102v-529l301 529h120zM322 -51q30 0 49.5 -19.5t19.5 -49.5q0 -24 -12 -40l-78 -137h-4v242q11 4 25 4z" />
    <glyph glyph-name="kcommaaccent" unicode="&#x137;" horiz-adv-x="541" 
d="M175 180l217 322h117l-154 -220l179 -282h-115l-126 201l-137 -201h-79v760h98v-580zM268 -51q30 0 49.5 -19.5t19.5 -49.5q0 -24 -12 -40l-78 -137h-4v242q11 4 25 4z" />
    <glyph glyph-name="Lacute" unicode="&#x139;" horiz-adv-x="544" 
d="M184 91h350v-91h-452v735h102v-644zM179 772h-108l133 115h121z" />
    <glyph glyph-name="lacute" unicode="&#x13a;" horiz-adv-x="253" 
d="M175 0h-98v760h98v-760zM179 792h-108l133 115h121z" />
    <glyph glyph-name="Lcommaaccent" unicode="&#x13b;" horiz-adv-x="544" 
d="M184 91h350v-91h-452v735h102v-644zM285 -51q30 0 49.5 -19.5t19.5 -49.5q0 -24 -12 -40l-78 -137h-4v242q11 4 25 4z" />
    <glyph glyph-name="lcommaaccent" unicode="&#x13c;" horiz-adv-x="253" 
d="M175 0h-98v760h98v-760zM105 -51q30 0 49.5 -19.5t19.5 -49.5q0 -24 -12 -40l-78 -137h-4v242q11 4 25 4z" />
    <glyph glyph-name="Lcaron" unicode="&#x13d;" horiz-adv-x="544" 
d="M184 91h350v-91h-452v735h102v-644zM454 752q30 0 49.5 -19.5t19.5 -49.5q0 -12 -3.5 -22t-8.5 -19l-78 -159h-4v265q11 4 25 4z" />
    <glyph glyph-name="lcaron" unicode="&#x13e;" horiz-adv-x="412" 
d="M175 0h-98v760h98v-760zM302 752q30 0 49.5 -19.5t19.5 -49.5q0 -12 -3.5 -22t-8.5 -19l-78 -159h-4v265q11 4 25 4z" />
    <glyph glyph-name="Ldot" unicode="&#x13f;" horiz-adv-x="544" 
d="M184 91h350v-91h-452v735h102v-644zM402 401q29 0 47.5 -18.5t18.5 -47.5q0 -28 -18.5 -46.5t-47.5 -18.5t-47.5 18.5t-18.5 46.5q0 29 18.5 47.5t47.5 18.5z" />
    <glyph glyph-name="ldot" unicode="&#x140;" horiz-adv-x="438" 
d="M175 0h-98v760h98v-760zM341 322q29 0 47.5 -18.5t18.5 -47.5q0 -28 -18.5 -46.5t-47.5 -18.5t-47.5 18.5t-18.5 46.5q0 29 18.5 47.5t47.5 18.5z" />
    <glyph glyph-name="Lslash" unicode="&#x141;" horiz-adv-x="571" 
d="M210 384l103 51l29 -72l-132 -66v-206h350v-91h-452v246l-81 -40l-29 73l110 54v402h102v-351z" />
    <glyph glyph-name="lslash" unicode="&#x142;" horiz-adv-x="275" 
d="M186 406l77 38l26 -62l-103 -51v-331h-98v282l-75 -37l-27 63l102 50v402h98v-354z" />
    <glyph glyph-name="Nacute" unicode="&#x143;" horiz-adv-x="729" 
d="M647 -13h-4l-459 507v-494h-102v748h4l459 -506v493h102v-748zM408 772h-108l133 115h121z" />
    <glyph glyph-name="nacute" unicode="&#x144;" horiz-adv-x="583" 
d="M329 512q45 0 80.5 -15.5t60 -43.5t37 -68t12.5 -88v-297h-98v291q0 57 -31 92.5t-85 35.5q-45 0 -76 -23.5t-54 -56.5v-339h-98v502h89l4 -61q22 28 61.5 49.5t97.5 21.5zM338 576h-99l138 131h116z" />
    <glyph glyph-name="Ncommaaccent" unicode="&#x145;" horiz-adv-x="729" 
d="M647 -13h-4l-459 507v-494h-102v748h4l459 -506v493h102v-748zM363 -51q30 0 49.5 -19.5t19.5 -49.5q0 -24 -12 -40l-78 -137h-4v242q11 4 25 4z" />
    <glyph glyph-name="ncommaaccent" unicode="&#x146;" horiz-adv-x="583" 
d="M329 512q45 0 80.5 -15.5t60 -43.5t37 -68t12.5 -88v-297h-98v291q0 57 -31 92.5t-85 35.5q-45 0 -76 -23.5t-54 -56.5v-339h-98v502h89l4 -61q22 28 61.5 49.5t97.5 21.5zM277 -51q30 0 49.5 -19.5t19.5 -49.5q0 -24 -12 -40l-78 -137h-4v242q11 4 25 4z" />
    <glyph glyph-name="Ncaron" unicode="&#x147;" horiz-adv-x="729" 
d="M647 -13h-4l-459 507v-494h-102v748h4l459 -506v493h102v-748zM364 763l-159 144h91l68 -60l68 60h91z" />
    <glyph glyph-name="ncaron" unicode="&#x148;" horiz-adv-x="583" 
d="M329 512q45 0 80.5 -15.5t60 -43.5t37 -68t12.5 -88v-297h-98v291q0 57 -31 92.5t-85 35.5q-45 0 -76 -23.5t-54 -56.5v-339h-98v502h89l4 -61q22 28 61.5 49.5t97.5 21.5zM297 570l-155 167h89l66 -65l65 65h89z" />
    <glyph glyph-name="Eng" unicode="&#x14a;" horiz-adv-x="729" 
d="M647 -17q0 -51 -16 -92t-45.5 -70.5t-71 -45t-92.5 -15.5v101q57 0 90 33t33 96v105l-361 399v-494h-102v748h4l459 -506v493h102v-752z" />
    <glyph glyph-name="eng" unicode="&#x14b;" horiz-adv-x="583" 
d="M329 512q45 0 80.5 -15.5t60 -43.5t37 -68t12.5 -88v-354q0 -39 -14 -72.5t-39.5 -58t-60 -38.5t-74.5 -14v91q40 0 65 22.5t25 62.5v355q0 57 -31 92.5t-85 35.5q-45 0 -76 -23.5t-54 -56.5v-339h-98v502h89l4 -61q22 28 61.5 49.5t97.5 21.5z" />
    <glyph glyph-name="Omacron" unicode="&#x14c;" horiz-adv-x="806" 
d="M403 748q80 0 148 -28.5t117.5 -79.5t77.5 -121t28 -152q0 -83 -28 -152.5t-77.5 -120t-117.5 -79t-148 -28.5t-148 28.5t-117.5 79t-77 120t-27.5 152.5q0 82 27.5 152t77 121t117.5 79.5t148 28.5zM403 654q-59 0 -108 -21.5t-84 -60t-55 -91t-20 -114.5t20 -114.5
t55 -90.5t84 -59.5t108 -21.5q58 0 107.5 21.5t84.5 59.5t55 90.5t20 114.5t-20 114.5t-55 91t-84.5 60t-107.5 21.5zM533 798h-260v69h260v-69z" />
    <glyph glyph-name="omacron" unicode="&#x14d;" 
d="M287 512q56 0 103 -19.5t81.5 -54.5t54 -83t19.5 -105t-19.5 -104.5t-54 -82t-81.5 -54t-103 -19.5t-103 19.5t-81.5 54t-53.5 82t-19 104.5t19 105t53.5 83t81.5 54.5t103 19.5zM287 425q-35 0 -64 -13t-50 -36.5t-32.5 -55.5t-11.5 -70t11.5 -69.5t32.5 -54.5t50 -36
t64 -13q34 0 63.5 13t50.5 36t33 54.5t12 69.5t-12 70t-33 55.5t-50.5 36.5t-63.5 13zM417 597h-260v68h260v-68z" />
    <glyph glyph-name="Obreve" unicode="&#x14e;" horiz-adv-x="806" 
d="M403 748q80 0 148 -28.5t117.5 -79.5t77.5 -121t28 -152q0 -83 -28 -152.5t-77.5 -120t-117.5 -79t-148 -28.5t-148 28.5t-117.5 79t-77 120t-27.5 152.5q0 82 27.5 152t77 121t117.5 79.5t148 28.5zM403 654q-59 0 -108 -21.5t-84 -60t-55 -91t-20 -114.5t20 -114.5
t55 -90.5t84 -59.5t108 -21.5q58 0 107.5 21.5t84.5 59.5t55 90.5t20 114.5t-20 114.5t-55 91t-84.5 60t-107.5 21.5zM555 927q0 -32 -11.5 -58.5t-32 -45.5t-48 -30t-60.5 -11t-61 11t-48.5 30t-32 45.5t-11.5 58.5h71q0 -32 22.5 -55t59.5 -23t59 23t22 55h71z" />
    <glyph glyph-name="obreve" unicode="&#x14f;" 
d="M287 512q56 0 103 -19.5t81.5 -54.5t54 -83t19.5 -105t-19.5 -104.5t-54 -82t-81.5 -54t-103 -19.5t-103 19.5t-81.5 54t-53.5 82t-19 104.5t19 105t53.5 83t81.5 54.5t103 19.5zM287 425q-35 0 -64 -13t-50 -36.5t-32.5 -55.5t-11.5 -70t11.5 -69.5t32.5 -54.5t50 -36
t64 -13q34 0 63.5 13t50.5 36t33 54.5t12 69.5t-12 70t-33 55.5t-50.5 36.5t-63.5 13zM439 724q0 -32 -11.5 -59.5t-32 -47.5t-48 -31t-60.5 -11t-61 11t-48.5 31t-32 47.5t-11.5 59.5h72q0 -35 22.5 -58t58.5 -23q35 0 57.5 23t22.5 58h72z" />
    <glyph glyph-name="Ohungarumlaut" unicode="&#x150;" horiz-adv-x="806" 
d="M403 748q80 0 148 -28.5t117.5 -79.5t77.5 -121t28 -152q0 -83 -28 -152.5t-77.5 -120t-117.5 -79t-148 -28.5t-148 28.5t-117.5 79t-77 120t-27.5 152.5q0 82 27.5 152t77 121t117.5 79.5t148 28.5zM403 654q-59 0 -108 -21.5t-84 -60t-55 -91t-20 -114.5t20 -114.5
t55 -90.5t84 -59.5t108 -21.5q58 0 107.5 21.5t84.5 59.5t55 90.5t20 114.5t-20 114.5t-55 91t-84.5 60t-107.5 21.5zM359 784h-85l96 119h87zM521 784h-85l96 119h87z" />
    <glyph glyph-name="ohungarumlaut" unicode="&#x151;" 
d="M287 512q56 0 103 -19.5t81.5 -54.5t54 -83t19.5 -105t-19.5 -104.5t-54 -82t-81.5 -54t-103 -19.5t-103 19.5t-81.5 54t-53.5 82t-19 104.5t19 105t53.5 83t81.5 54.5t103 19.5zM287 425q-35 0 -64 -13t-50 -36.5t-32.5 -55.5t-11.5 -70t11.5 -69.5t32.5 -54.5t50 -36
t64 -13q34 0 63.5 13t50.5 36t33 54.5t12 69.5t-12 70t-33 55.5t-50.5 36.5t-63.5 13zM235 571h-87l107 144h87zM404 571h-88l107 144h87z" />
    <glyph glyph-name="OE" unicode="&#x152;" horiz-adv-x="1161" 
d="M1126 641h-353v-223h310v-91h-310v-233h361v-94h-463v113q-48 -59 -115.5 -92.5t-152.5 -33.5q-80 0 -148 28.5t-117.5 79t-77 120t-27.5 152.5q0 82 27.5 152t77 121t117.5 79.5t148 28.5q85 0 152.5 -34t115.5 -93v114h455v-94zM403 654q-59 0 -108 -21.5t-84 -60
t-55 -91t-20 -114.5t20 -114.5t55 -90.5t84 -59.5t108 -21.5q58 0 107.5 21.5t84.5 59.5t55 90.5t20 114.5t-20 114.5t-55 91t-84.5 60t-107.5 21.5z" />
    <glyph glyph-name="oe" unicode="&#x153;" horiz-adv-x="950" 
d="M690 512q56 0 98.5 -20.5t71 -55.5t43 -81.5t14.5 -99.5v-39h-368q2 -69 41 -105.5t111 -36.5q50 0 83.5 19t52.5 45l68 -57q-36 -45 -85.5 -68t-118.5 -23t-121.5 26.5t-84.5 74.5q-35 -48 -88.5 -74.5t-119.5 -26.5q-56 0 -103 19.5t-81.5 54t-53.5 82t-19 104.5
t19 105t53.5 83t81.5 54.5t103 19.5q66 0 119.5 -27.5t88.5 -75.5q32 48 82 75.5t113 27.5zM287 425q-35 0 -64 -13t-50 -36.5t-32.5 -55.5t-11.5 -70t11.5 -69.5t32.5 -54.5t50 -36t64 -13q34 0 63 13t50 36t33 54.5t12 69.5t-12 70t-33 55.5t-50 36.5t-63 13zM690 428
q-61 0 -99 -36t-42 -96h271q-2 60 -35.5 96t-94.5 36z" />
    <glyph glyph-name="Racute" unicode="&#x154;" horiz-adv-x="632" 
d="M324 735q55 0 102 -15t82 -44t55 -71.5t20 -97.5q0 -81 -41 -134t-108 -77l184 -296h-120l-172 279h-144v-279h-102v735h244zM182 645v-276h133q75 0 120 34.5t45 103.5q0 68 -45 103t-120 35h-133zM350 772h-108l133 115h121z" />
    <glyph glyph-name="racute" unicode="&#x155;" horiz-adv-x="334" 
d="M320 414h-9q-47 0 -78.5 -23.5t-57.5 -60.5v-330h-98v502h89l5 -68q19 30 56 54t93 24v-98zM252 576h-99l138 131h116z" />
    <glyph glyph-name="Rcommaaccent" unicode="&#x156;" horiz-adv-x="632" 
d="M324 735q55 0 102 -15t82 -44t55 -71.5t20 -97.5q0 -81 -41 -134t-108 -77l184 -296h-120l-172 279h-144v-279h-102v735h244zM182 645v-276h133q75 0 120 34.5t45 103.5q0 68 -45 103t-120 35h-133zM300 -51q30 0 49.5 -19.5t19.5 -49.5q0 -24 -12 -40l-78 -137h-4v242
q11 4 25 4z" />
    <glyph glyph-name="rcommaaccent" unicode="&#x157;" horiz-adv-x="334" 
d="M320 414h-9q-47 0 -78.5 -23.5t-57.5 -60.5v-330h-98v502h89l5 -68q19 30 56 54t93 24v-98zM126 -51q30 0 49.5 -19.5t19.5 -49.5q0 -24 -12 -40l-78 -137h-4v242q11 4 25 4z" />
    <glyph glyph-name="Rcaron" unicode="&#x158;" horiz-adv-x="632" 
d="M324 735q55 0 102 -15t82 -44t55 -71.5t20 -97.5q0 -81 -41 -134t-108 -77l184 -296h-120l-172 279h-144v-279h-102v735h244zM182 645v-276h133q75 0 120 34.5t45 103.5q0 68 -45 103t-120 35h-133zM305 763l-159 144h91l68 -60l68 60h91z" />
    <glyph glyph-name="rcaron" unicode="&#x159;" horiz-adv-x="334" 
d="M320 414h-9q-47 0 -78.5 -23.5t-57.5 -60.5v-330h-98v502h89l5 -68q19 30 56 54t93 24v-98zM211 570l-155 167h89l66 -65l65 65h89z" />
    <glyph glyph-name="Sacute" unicode="&#x15a;" horiz-adv-x="585" 
d="M285 748q75 0 135 -21.5t104 -56.5l-54 -84q-35 29 -81.5 48.5t-104.5 19.5q-60 0 -99 -27.5t-39 -87.5q0 -24 8.5 -41.5t28 -31t51 -23.5t78.5 -20q67 -15 113.5 -34t76 -44.5t42.5 -59t13 -75.5q0 -50 -18.5 -91t-52.5 -70.5t-82.5 -45.5t-108.5 -16q-82 0 -149.5 24.5
t-119.5 69.5l57 85q39 -39 97 -62t118 -23q69 0 113 30.5t44 90.5q0 24 -9.5 42.5t-30 33t-53.5 25.5t-79 21q-67 15 -113 34t-74 44.5t-40 58.5t-12 74q0 48 17.5 87.5t49 67.5t76 43t98.5 15zM333 776h-108l133 115h121z" />
    <glyph glyph-name="sacute" unicode="&#x15b;" horiz-adv-x="457" 
d="M239 512q51 0 94.5 -15.5t72.5 -39.5l-42 -76q-23 18 -53.5 31t-71.5 13q-42 0 -67 -13.5t-25 -44.5q0 -15 5.5 -25.5t18.5 -18t32.5 -13t48.5 -12.5q88 -21 129 -58t41 -94q0 -72 -54 -114t-147 -42q-57 0 -107 16.5t-84 44.5l45 78q28 -24 65 -38t82 -14t73 15.5
t28 47.5q0 15 -6 26t-18.5 19.5t-33 15t-49.5 13.5q-88 20 -127.5 54t-39.5 93q0 72 51 111.5t139 39.5zM273 576h-99l138 131h116z" />
    <glyph glyph-name="Scircumflex" unicode="&#x15c;" horiz-adv-x="585" 
d="M285 748q75 0 135 -21.5t104 -56.5l-54 -84q-35 29 -81.5 48.5t-104.5 19.5q-60 0 -99 -27.5t-39 -87.5q0 -24 8.5 -41.5t28 -31t51 -23.5t78.5 -20q67 -15 113.5 -34t76 -44.5t42.5 -59t13 -75.5q0 -50 -18.5 -91t-52.5 -70.5t-82.5 -45.5t-108.5 -16q-82 0 -149.5 24.5
t-119.5 69.5l57 85q39 -39 97 -62t118 -23q69 0 113 30.5t44 90.5q0 24 -9.5 42.5t-30 33t-53.5 25.5t-79 21q-67 15 -113 34t-74 44.5t-40 58.5t-12 74q0 48 17.5 87.5t49 67.5t76 43t98.5 15zM447 775h-91l-68 61l-68 -61h-91l159 145z" />
    <glyph glyph-name="scircumflex" unicode="&#x15d;" horiz-adv-x="457" 
d="M239 512q51 0 94.5 -15.5t72.5 -39.5l-42 -76q-23 18 -53.5 31t-71.5 13q-42 0 -67 -13.5t-25 -44.5q0 -15 5.5 -25.5t18.5 -18t32.5 -13t48.5 -12.5q88 -21 129 -58t41 -94q0 -72 -54 -114t-147 -42q-57 0 -107 16.5t-84 44.5l45 78q28 -24 65 -38t82 -14t73 15.5
t28 47.5q0 15 -6 26t-18.5 19.5t-33 15t-49.5 13.5q-88 20 -127.5 54t-39.5 93q0 72 51 111.5t139 39.5zM386 576h-89l-65 65l-66 -65h-89l155 167z" />
    <glyph glyph-name="Scedilla" unicode="&#x15e;" horiz-adv-x="585" 
d="M285 748q75 0 135 -21.5t104 -56.5l-54 -84q-35 29 -81.5 48.5t-104.5 19.5q-60 0 -99 -27.5t-39 -87.5q0 -24 8.5 -41.5t28 -31t51 -23.5t78.5 -20q67 -15 113.5 -34t76 -44.5t42.5 -59t13 -75.5q0 -47 -16.5 -86t-46.5 -68t-73.5 -46.5t-97.5 -21.5l-7 -44
q42 -4 66 -28t24 -66q0 -46 -28.5 -74t-80.5 -28q-32 0 -57 10.5t-42 29.5l39 45q10 -11 24.5 -19.5t32.5 -8.5q20 0 32 10.5t12 31.5q0 38 -41 42q-15 2 -26 0t-22 -7l-3 4l18 102q-72 5 -131.5 28.5t-106.5 64.5l57 85q39 -39 97 -62t118 -23q69 0 113 30.5t44 90.5
q0 24 -9.5 42.5t-30 33t-53.5 25.5t-79 21q-67 15 -113 34t-74 44.5t-40 58.5t-12 74q0 48 17.5 87.5t49 67.5t76 43t98.5 15z" />
    <glyph glyph-name="scedilla" unicode="&#x15f;" horiz-adv-x="457" 
d="M239 512q51 0 94.5 -15.5t72.5 -39.5l-42 -76q-23 18 -53.5 31t-71.5 13q-42 0 -67 -13.5t-25 -44.5q0 -15 5.5 -25.5t18.5 -18t32.5 -13t48.5 -12.5q88 -21 129 -58t41 -94q0 -66 -45.5 -106.5t-125.5 -47.5l-7 -48q42 -4 66 -28t24 -66q0 -46 -28.5 -74t-80.5 -28
q-32 0 -57 10.5t-42 29.5l39 45q10 -11 24.5 -19.5t32.5 -8.5q20 0 32 10.5t12 31.5q0 38 -41 42q-15 2 -26 0t-22 -7l-3 4l18 105q-48 4 -90.5 19.5t-71.5 40.5l45 78q28 -24 65 -38t82 -14t73 15.5t28 47.5q0 15 -6 26t-18.5 19.5t-33 15t-49.5 13.5q-88 20 -127.5 54
t-39.5 93q0 72 51 111.5t139 39.5z" />
    <glyph glyph-name="Scaron" unicode="&#x160;" horiz-adv-x="585" 
d="M285 748q75 0 135 -21.5t104 -56.5l-54 -84q-35 29 -81.5 48.5t-104.5 19.5q-60 0 -99 -27.5t-39 -87.5q0 -24 8.5 -41.5t28 -31t51 -23.5t78.5 -20q67 -15 113.5 -34t76 -44.5t42.5 -59t13 -75.5q0 -50 -18.5 -91t-52.5 -70.5t-82.5 -45.5t-108.5 -16q-82 0 -149.5 24.5
t-119.5 69.5l57 85q39 -39 97 -62t118 -23q69 0 113 30.5t44 90.5q0 24 -9.5 42.5t-30 33t-53.5 25.5t-79 21q-67 15 -113 34t-74 44.5t-40 58.5t-12 74q0 48 17.5 87.5t49 67.5t76 43t98.5 15zM288 767l-159 144h91l68 -60l68 60h91z" />
    <glyph glyph-name="scaron" unicode="&#x161;" horiz-adv-x="457" 
d="M239 512q51 0 94.5 -15.5t72.5 -39.5l-42 -76q-23 18 -53.5 31t-71.5 13q-42 0 -67 -13.5t-25 -44.5q0 -15 5.5 -25.5t18.5 -18t32.5 -13t48.5 -12.5q88 -21 129 -58t41 -94q0 -72 -54 -114t-147 -42q-57 0 -107 16.5t-84 44.5l45 78q28 -24 65 -38t82 -14t73 15.5
t28 47.5q0 15 -6 26t-18.5 19.5t-33 15t-49.5 13.5q-88 20 -127.5 54t-39.5 93q0 72 51 111.5t139 39.5zM232 570l-155 167h89l66 -65l65 65h89z" />
    <glyph glyph-name="Tcommaaccent" unicode="&#x162;" horiz-adv-x="649" 
d="M633 644h-258v-644h-102v644h-257v91h617v-91zM304 -51q30 0 49.5 -19.5t19.5 -49.5q0 -24 -12 -40l-78 -137h-4v242q11 4 25 4z" />
    <glyph glyph-name="tcommaaccent" unicode="&#x163;" horiz-adv-x="398" 
d="M208 502h158v-84h-158v-249q0 -44 24 -67t62 -23q26 0 43.5 4.5t28.5 11.5l28 -77q-18 -11 -44.5 -19.5t-63.5 -8.5q-81 0 -128.5 45t-47.5 133v250h-98v84h98v170h98v-170zM181 -51q30 0 49.5 -19.5t19.5 -49.5q0 -24 -12 -40l-78 -137h-4v242q11 4 25 4z" />
    <glyph glyph-name="Tcaron" unicode="&#x164;" horiz-adv-x="649" 
d="M633 644h-258v-644h-102v644h-257v91h617v-91zM323 763l-159 144h91l68 -60l68 60h91z" />
    <glyph glyph-name="tcaron" unicode="&#x165;" horiz-adv-x="557" 
d="M208 502h158v-84h-158v-249q0 -44 24 -67t62 -23q26 0 43.5 4.5t28.5 11.5l28 -77q-18 -11 -44.5 -19.5t-63.5 -8.5q-81 0 -128.5 45t-47.5 133v250h-98v84h98v170h98v-170zM447 752q30 0 49.5 -19.5t19.5 -49.5q0 -12 -3.5 -22t-8.5 -19l-78 -159h-4v265q11 4 25 4z" />
    <glyph glyph-name="Tbar" unicode="&#x166;" horiz-adv-x="649" 
d="M633 644h-258v-256h150v-69h-150v-319h-102v319h-149v69h149v256h-257v91h617v-91z" />
    <glyph glyph-name="tbar" unicode="&#x167;" horiz-adv-x="398" 
d="M208 502h158v-69h-158v-107h158v-68h-158v-89q0 -44 25.5 -67t67.5 -23q24 0 41 4t28 10l21 -79q-14 -9 -39.5 -16.5t-60.5 -7.5q-83 0 -132 45t-49 133v90h-98v68h98v107h-98v69h98v170h98v-170z" />
    <glyph glyph-name="Utilde" unicode="&#x168;" horiz-adv-x="689" 
d="M616 259q0 -62 -17.5 -112t-51.5 -85.5t-84.5 -55t-117.5 -19.5t-118 19.5t-85 55t-51.5 85.5t-17.5 112v476h102v-470q0 -84 42.5 -134t127.5 -50q84 0 126.5 50t42.5 134v470h102v-476zM283 915q32 0 49.5 -12t29.5 -27t22.5 -27t27.5 -12t24.5 20t7.5 52h64
q0 -72 -29.5 -105.5t-72.5 -33.5q-33 0 -49.5 12t-27.5 27t-21 27t-28 12q-19 0 -26.5 -20t-7.5 -52h-65q0 73 30 106t72 33z" />
    <glyph glyph-name="utilde" unicode="&#x169;" 
d="M498 0h-89l-4 61q-23 -29 -61.5 -50t-99.5 -21q-43 0 -76.5 15.5t-56 43t-34.5 67t-12 87.5v299h98v-294q0 -56 28 -90.5t78 -34.5q47 0 77.5 24t53.5 56v339h98v-502zM219 717q32 0 49.5 -12t29.5 -27t22.5 -27t27.5 -12t24.5 20t7.5 52h64q0 -72 -29.5 -105.5
t-72.5 -33.5q-33 0 -49.5 12t-27.5 27t-21 27t-28 12q-19 0 -26.5 -20t-7.5 -52h-65q0 73 30 106t72 33z" />
    <glyph glyph-name="Umacron" unicode="&#x16a;" horiz-adv-x="689" 
d="M616 259q0 -62 -17.5 -112t-51.5 -85.5t-84.5 -55t-117.5 -19.5t-118 19.5t-85 55t-51.5 85.5t-17.5 112v476h102v-470q0 -84 42.5 -134t127.5 -50q84 0 126.5 50t42.5 134v470h102v-476zM474 788h-260v69h260v-69z" />
    <glyph glyph-name="umacron" unicode="&#x16b;" 
d="M498 0h-89l-4 61q-23 -29 -61.5 -50t-99.5 -21q-43 0 -76.5 15.5t-56 43t-34.5 67t-12 87.5v299h98v-294q0 -56 28 -90.5t78 -34.5q47 0 77.5 24t53.5 56v339h98v-502zM410 597h-260v68h260v-68z" />
    <glyph glyph-name="Ubreve" unicode="&#x16c;" horiz-adv-x="689" 
d="M616 259q0 -62 -17.5 -112t-51.5 -85.5t-84.5 -55t-117.5 -19.5t-118 19.5t-85 55t-51.5 85.5t-17.5 112v476h102v-470q0 -84 42.5 -134t127.5 -50q84 0 126.5 50t42.5 134v470h102v-476zM496 917q0 -32 -11.5 -58.5t-32 -45.5t-48 -30t-60.5 -11t-61 11t-48.5 30
t-32 45.5t-11.5 58.5h71q0 -32 22.5 -55t59.5 -23t59 23t22 55h71z" />
    <glyph glyph-name="ubreve" unicode="&#x16d;" 
d="M498 0h-89l-4 61q-23 -29 -61.5 -50t-99.5 -21q-43 0 -76.5 15.5t-56 43t-34.5 67t-12 87.5v299h98v-294q0 -56 28 -90.5t78 -34.5q47 0 77.5 24t53.5 56v339h98v-502zM433 724q0 -32 -11.5 -59.5t-32 -47.5t-48 -31t-60.5 -11t-61 11t-48.5 31t-32 47.5t-11.5 59.5h72
q0 -35 22.5 -58t58.5 -23q35 0 57.5 23t22.5 58h72z" />
    <glyph glyph-name="Uring" unicode="&#x16e;" horiz-adv-x="689" 
d="M616 259q0 -62 -17.5 -112t-51.5 -85.5t-84.5 -55t-117.5 -19.5t-118 19.5t-85 55t-51.5 85.5t-17.5 112v476h102v-470q0 -84 42.5 -134t127.5 -50q84 0 126.5 50t42.5 134v470h102v-476zM345 986q47 0 78 -30.5t31 -77.5q0 -48 -31 -78t-78 -30q-48 0 -79 30t-31 78
q0 47 31 77.5t79 30.5zM345 931q-22 0 -37 -15t-15 -38t15 -37.5t37 -14.5t37 14.5t15 37.5t-15 38t-37 15z" />
    <glyph glyph-name="uring" unicode="&#x16f;" 
d="M498 0h-89l-4 61q-23 -29 -61.5 -50t-99.5 -21q-43 0 -76.5 15.5t-56 43t-34.5 67t-12 87.5v299h98v-294q0 -56 28 -90.5t78 -34.5q47 0 77.5 24t53.5 56v339h98v-502zM281 787q47 0 78 -31t31 -78t-31 -77t-78 -30q-48 0 -79 30t-31 77t31 78t79 31zM281 731
q-22 0 -37 -15t-15 -38t15 -37t37 -14t37 14t15 37t-15 38t-37 15z" />
    <glyph glyph-name="Uhungarumlaut" unicode="&#x170;" horiz-adv-x="689" 
d="M616 259q0 -62 -17.5 -112t-51.5 -85.5t-84.5 -55t-117.5 -19.5t-118 19.5t-85 55t-51.5 85.5t-17.5 112v476h102v-470q0 -84 42.5 -134t127.5 -50q84 0 126.5 50t42.5 134v470h102v-476zM301 774h-85l96 119h87zM463 774h-85l96 119h87z" />
    <glyph glyph-name="uhungarumlaut" unicode="&#x171;" 
d="M498 0h-89l-4 61q-23 -29 -61.5 -50t-99.5 -21q-43 0 -76.5 15.5t-56 43t-34.5 67t-12 87.5v299h98v-294q0 -56 28 -90.5t78 -34.5q47 0 77.5 24t53.5 56v339h98v-502zM229 571h-87l107 144h87zM398 571h-88l107 144h87z" />
    <glyph glyph-name="Uogonek" unicode="&#x172;" horiz-adv-x="689" 
d="M616 259q0 -97 -42 -164t-124 -93q-32 -19 -32 -58q0 -33 20 -50t49 -17q11 0 19.5 2.5t14.5 5.5l21 -57q-21 -10 -57 -10q-28 0 -52 8t-42 24t-28.5 39.5t-10.5 54.5q0 26 7 43h-14q-67 0 -118 19.5t-85 55t-51.5 85.5t-17.5 112v476h102v-470q0 -84 42.5 -134
t127.5 -50q84 0 126.5 50t42.5 134v470h102v-476z" />
    <glyph glyph-name="uogonek" unicode="&#x173;" 
d="M498 0h-13q-21 -8 -33 -24.5t-12 -39.5q0 -33 20 -50t49 -17q11 0 19.5 2.5t14.5 5.5l21 -57q-21 -10 -57 -10q-28 0 -52 8t-42 24t-28.5 39.5t-10.5 54.5q0 28 9 48t25 34l-3 43q-23 -29 -61.5 -50t-99.5 -21q-43 0 -76.5 15.5t-56 43t-34.5 67t-12 87.5v299h98v-294
q0 -56 28 -90.5t78 -34.5q47 0 77.5 24t53.5 56v339h98v-502z" />
    <glyph glyph-name="Wcircumflex" unicode="&#x174;" horiz-adv-x="978" 
d="M680 -12h-4l-187 479l-187 -479h-4l-288 747h113l177 -478l187 478h4l187 -478l177 478h113zM647 771h-91l-68 61l-68 -61h-91l159 145z" />
    <glyph glyph-name="wcircumflex" unicode="&#x175;" horiz-adv-x="764" 
d="M530 -10h-4l-144 298l-145 -298h-4l-223 512h110l122 -291l138 291h4l138 -291l122 291h109zM536 576h-89l-65 65l-66 -65h-89l155 167z" />
    <glyph glyph-name="Ycircumflex" unicode="&#x176;" horiz-adv-x="660" 
d="M381 311v-311h-102v309l-272 425h119l204 -322l203 322h120zM488 771h-91l-68 61l-68 -61h-91l159 145z" />
    <glyph glyph-name="ycircumflex" unicode="&#x177;" horiz-adv-x="552" 
d="M170 -230h-112l165 312l-207 420h109l151 -310l151 310h110zM422 576h-89l-65 65l-66 -65h-89l155 167z" />
    <glyph glyph-name="Ydieresis" unicode="&#x178;" horiz-adv-x="660" 
d="M381 311v-311h-102v309l-272 425h119l204 -322l203 322h120zM244 883q24 0 39.5 -15.5t15.5 -38.5t-15.5 -38.5t-39.5 -15.5q-23 0 -38.5 15.5t-15.5 38.5t15.5 38.5t38.5 15.5zM415 883q23 0 39 -15.5t16 -38.5t-16 -38.5t-39 -15.5t-38.5 15.5t-15.5 38.5t15.5 38.5
t38.5 15.5z" />
    <glyph glyph-name="Zacute" unicode="&#x179;" horiz-adv-x="580" 
d="M542 731l-355 -638h366v-93h-528v4l358 638h-342v93h501v-4zM333 772h-108l133 115h121z" />
    <glyph glyph-name="zacute" unicode="&#x17a;" horiz-adv-x="453" 
d="M429 498l-250 -414h249v-84h-405v4l249 414h-234v84h391v-4zM267 576h-99l138 131h116z" />
    <glyph glyph-name="Zdotaccent" unicode="&#x17b;" horiz-adv-x="580" 
d="M542 731l-355 -638h366v-93h-528v4l358 638h-342v93h501v-4zM288 890q26 0 43 -17t17 -43t-17 -42.5t-43 -16.5t-42.5 16.5t-16.5 42.5t16.5 43t42.5 17z" />
    <glyph glyph-name="zdotaccent" unicode="&#x17c;" horiz-adv-x="453" 
d="M429 498l-250 -414h249v-84h-405v4l249 414h-234v84h391v-4zM225 722q28 0 46 -18t18 -46t-18 -45.5t-46 -17.5t-46 17.5t-18 45.5t18 46t46 18z" />
    <glyph glyph-name="Zcaron" unicode="&#x17d;" horiz-adv-x="580" 
d="M542 731l-355 -638h366v-93h-528v4l358 638h-342v93h501v-4zM288 763l-159 144h91l68 -60l68 60h91z" />
    <glyph glyph-name="zcaron" unicode="&#x17e;" horiz-adv-x="453" 
d="M429 498l-250 -414h249v-84h-405v4l249 414h-234v84h391v-4zM226 570l-155 167h89l66 -65l65 65h89z" />
    <glyph glyph-name="florin" unicode="&#x192;" horiz-adv-x="378" 
d="M312 754q35 0 62.5 -9.5t47.5 -26.5l-38 -78q-12 12 -28 19.5t-39 7.5q-37 0 -57.5 -25.5t-25.5 -69.5l-8 -70h112l-9 -84h-112l-54 -491q-4 -36 -18 -67t-36.5 -53t-53.5 -34.5t-68 -12.5q-35 0 -62.5 9t-47.5 26l38 78q12 -12 28 -19t39 -7q37 0 57.5 25t25.5 70
l52 476h-75l9 84h76l9 84q4 36 18 67t36.5 53.5t53 35t68.5 12.5z" />
    <glyph glyph-name="Aringacute" unicode="&#x1fa;" horiz-adv-x="698" 
d="M689 0h-109l-66 150h-330l-66 -150h-109l338 748h4zM395 973q29 -13 46 -39t17 -60q0 -47 -31 -77t-78 -30q-48 0 -79 30t-31 77q0 40 24 70h-1l138 131h116zM222 239h254l-127 284zM349 927q-22 0 -37 -15t-15 -38t15 -37t37 -14t37 14t15 37t-15 38t-37 15z" />
    <glyph glyph-name="aringacute" unicode="&#x1fb;" horiz-adv-x="593" 
d="M262 512q60 0 99.5 -21t61.5 -50l4 61h89v-502h-89l-4 61q-22 -29 -61.5 -50t-99.5 -21q-52 0 -94.5 19.5t-73 54.5t-47.5 82.5t-17 104.5t17 104.5t47.5 82.5t73 54.5t94.5 19.5zM280 425q-33 0 -60.5 -12.5t-48 -35.5t-31.5 -55t-11 -71t11 -71t31.5 -55t48 -35.5
t60.5 -12.5q51 0 83 24t55 61v178q-23 37 -55 61t-83 24zM338 762q26 -13 42.5 -38.5t16.5 -58.5q0 -47 -31 -77t-78 -30q-48 0 -79 30t-31 77q0 23 8.5 43t22.5 35h-4l133 115h121zM288 718q-22 0 -37 -15t-15 -38t15 -37t37 -14t37 14t15 37t-15 38t-37 15z" />
    <glyph glyph-name="AEacute" unicode="&#x1fc;" horiz-adv-x="870" 
d="M831 641h-410l93 -225h274v-87h-238l98 -235h191v-94h-264l-64 155h-325l-63 -155h-114l319 735h503v-94zM219 235h260l-130 318zM547 772h-108l133 115h121z" />
    <glyph glyph-name="aeacute" unicode="&#x1fd;" horiz-adv-x="944" 
d="M680 512q55 0 98.5 -19.5t72.5 -54t44.5 -82.5t15.5 -104v-36h-377q5 -68 41.5 -105t114.5 -37q47 0 82.5 17.5t58.5 46.5l68 -57q-37 -45 -89.5 -68t-116.5 -23q-66 0 -111 20t-68 51l-4 -61h-83l-4 61q-22 -29 -61.5 -50t-99.5 -21q-52 0 -94.5 19.5t-73 54.5
t-47.5 82.5t-17 104.5t17 104.5t47.5 82.5t73 54.5t94.5 19.5q60 0 99.5 -21t61.5 -50l4 61h84l4 -61q27 29 67.5 50t97.5 21zM676 428q-27 0 -52 -7.5t-44 -24t-31.5 -41.5t-15.5 -59h281q-3 59 -38 95.5t-100 36.5zM280 425q-33 0 -60.5 -12.5t-48 -35.5t-31.5 -55
t-11 -71t11 -71t31.5 -55t48 -35.5t60.5 -12.5q51 0 83 24t55 61v178q-23 37 -55 61t-83 24zM511 576h-99l138 131h116z" />
    <glyph glyph-name="Oslashacute" unicode="&#x1fe;" horiz-adv-x="806" 
d="M403 748q79 0 148 -29l53 96h89l-73 -134q72 -51 113 -132t41 -182q0 -83 -28 -152.5t-77.5 -120t-117.5 -79t-148 -28.5t-148 28l-52 -95h-90l73 133q-72 51 -112.5 131.5t-40.5 182.5q0 82 27.5 152t77 121t117.5 79.5t148 28.5zM403 654q-59 0 -108 -21.5t-84 -60
t-55 -91t-20 -114.5q0 -72 25.5 -130.5t71.5 -96.5l272 494q-48 20 -102 20zM670 367q0 72 -26 130.5t-72 96.5l-271 -494q45 -19 102 -19q58 0 107.5 21.5t84.5 59.5t55 90.5t20 114.5zM446 782h-108l133 115h121z" />
    <glyph glyph-name="oslashacute" unicode="&#x1ff;" 
d="M287 512q54 0 99 -18l43 78h66l-57 -106q50 -35 78.5 -91t28.5 -125q0 -57 -19.5 -104.5t-54 -82t-81.5 -54t-103 -19.5q-26 0 -50.5 4.5t-46.5 12.5l-42 -77h-67l56 104q-50 34 -78.5 90t-28.5 126q0 57 19 105t53.5 83t81.5 54.5t103 19.5zM287 430q-36 0 -65.5 -13.5
t-51.5 -37.5t-34 -57t-12 -72q0 -43 15 -78.5t41 -59.5l166 307q-28 11 -59 11zM450 250q0 42 -14.5 77.5t-40.5 59.5l-165 -305q24 -10 57 -10q35 0 65 13.5t51.5 37t34 56t12.5 71.5zM314 576h-99l138 131h116z" />
    <glyph glyph-name="Scommaaccent" unicode="&#x218;" horiz-adv-x="585" 
d="M285 748q75 0 135 -21.5t104 -56.5l-54 -84q-35 29 -81.5 48.5t-104.5 19.5q-60 0 -99 -27.5t-39 -87.5q0 -24 8.5 -41.5t28 -31t51 -23.5t78.5 -20q67 -15 113.5 -34t76 -44.5t42.5 -59t13 -75.5q0 -50 -18.5 -91t-52.5 -70.5t-82.5 -45.5t-108.5 -16q-82 0 -149.5 24.5
t-119.5 69.5l57 85q39 -39 97 -62t118 -23q69 0 113 30.5t44 90.5q0 24 -9.5 42.5t-30 33t-53.5 25.5t-79 21q-67 15 -113 34t-74 44.5t-40 58.5t-12 74q0 48 17.5 87.5t49 67.5t76 43t98.5 15zM287 -51q30 0 49.5 -19.5t19.5 -49.5q0 -24 -12 -40l-78 -137h-4v242
q11 4 25 4z" />
    <glyph glyph-name="scommaaccent" unicode="&#x219;" horiz-adv-x="457" 
d="M239 512q51 0 94.5 -15.5t72.5 -39.5l-42 -76q-23 18 -53.5 31t-71.5 13q-42 0 -67 -13.5t-25 -44.5q0 -15 5.5 -25.5t18.5 -18t32.5 -13t48.5 -12.5q88 -21 129 -58t41 -94q0 -72 -54 -114t-147 -42q-57 0 -107 16.5t-84 44.5l45 78q28 -24 65 -38t82 -14t73 15.5
t28 47.5q0 15 -6 26t-18.5 19.5t-33 15t-49.5 13.5q-88 20 -127.5 54t-39.5 93q0 72 51 111.5t139 39.5zM205 -51q30 0 49.5 -19.5t19.5 -49.5q0 -24 -12 -40l-78 -137h-4v242q11 4 25 4z" />
    <glyph glyph-name="circumflex" unicode="&#x2c6;" horiz-adv-x="350" 
d="M329 576h-89l-65 65l-66 -65h-89l155 167z" />
    <glyph glyph-name="caron" unicode="&#x2c7;" horiz-adv-x="350" 
d="M175 570l-155 167h89l66 -65l65 65h89z" />
    <glyph glyph-name="breve" unicode="&#x2d8;" horiz-adv-x="345" 
d="M325 724q0 -32 -11.5 -59.5t-32 -47.5t-48 -31t-60.5 -11t-61 11t-48.5 31t-32 47.5t-11.5 59.5h72q0 -35 22.5 -58t58.5 -23q35 0 57.5 23t22.5 58h72v0z" />
    <glyph glyph-name="dotaccent" unicode="&#x2d9;" horiz-adv-x="168" 
d="M84 722q28 0 46 -18t18 -46t-18 -45.5t-46 -17.5t-46 17.5t-18 45.5t18 46t46 18z" />
    <glyph glyph-name="ring" unicode="&#x2da;" horiz-adv-x="260" 
d="M130 787q47 0 78 -31t31 -78t-31 -77t-78 -30q-48 0 -79 30t-31 77t31 78t79 31zM130 731q-22 0 -37 -15t-15 -38t15 -37t37 -14t37 14t15 37t-15 38t-37 15z" />
    <glyph glyph-name="ogonek" unicode="&#x2db;" horiz-adv-x="230" 
d="M137 0q-21 -8 -33 -24.5t-12 -39.5q0 -33 20 -50t49 -17q11 0 19.5 2.5t14.5 5.5l21 -57q-21 -10 -57 -10q-28 0 -52 8t-42 24t-28.5 39.5t-10.5 54.5q0 46 23.5 72t60.5 41z" />
    <glyph glyph-name="tilde" unicode="&#x2dc;" horiz-adv-x="368" 
d="M122 717q32 0 49.5 -12t29.5 -27t22.5 -27t27.5 -12t24.5 20t7.5 52h64q0 -72 -29.5 -105.5t-72.5 -33.5q-33 0 -49.5 12t-27.5 27t-21 27t-28 12q-19 0 -26.5 -20t-7.5 -52h-65q0 73 30 106t72 33z" />
    <glyph glyph-name="hungarumlaut" unicode="&#x2dd;" horiz-adv-x="389" 
d="M134 571h-87l107 144h87zM303 571h-88l107 144h87z" />
    <glyph glyph-name="Omega" unicode="&#x3a9;" horiz-adv-x="858" 
d="M433 749q74 0 135.5 -26t105.5 -71.5t68.5 -108.5t24.5 -137q0 -57 -12 -103t-31 -83t-41 -65t-43 -49h182v-106h-337v101q36 26 67.5 57.5t55 69t36.5 81t13 93.5q0 53 -15 97t-44 76t-70.5 50t-94.5 18t-94.5 -18t-70 -50t-44 -76t-15.5 -97q0 -50 13 -93.5t36.5 -81
t55 -69t67.5 -57.5v-101h-336v106h182q-21 21 -43 49t-41 65t-31 83t-12 103q0 74 24.5 137t68.5 108.5t105 71.5t135 26z" />
    <glyph glyph-name="pi" unicode="&#x3c0;" horiz-adv-x="711" 
d="M697 531q-10 -27 -23 -48.5t-32.5 -37.5t-47 -24.5t-67.5 -8.5h-14l-33 -253q-5 -38 3.5 -54.5t34.5 -16.5q20 0 36.5 7t30.5 18l35 -69q-29 -23 -60.5 -36t-78.5 -13q-33 0 -53 10.5t-30 29.5t-11.5 45t2.5 56l36 276h-115l-33 -247q-5 -32 -10 -56.5t-10.5 -44t-12 -35
t-12.5 -29.5h-99q23 48 36.5 91.5t19.5 89.5l32 231h-27q-46 0 -75.5 -18.5t-52.5 -44.5l-46 68q20 20 39.5 35.5t42.5 26.5t53 16.5t71 5.5h253q36 0 59 4.5t38.5 13.5t25.5 23t20 34z" />
    <glyph glyph-name="Wgrave" unicode="&#x1e80;" horiz-adv-x="978" 
d="M680 -12h-4l-187 479l-187 -479h-4l-288 747h113l177 -478l187 478h4l187 -478l177 478h113zM543 772h-108l-146 115h121z" />
    <glyph glyph-name="wgrave" unicode="&#x1e81;" horiz-adv-x="764" 
d="M530 -10h-4l-144 298l-145 -298h-4l-223 512h110l122 -291l138 291h4l138 -291l122 291h109zM435 576h-99l-155 131h116z" />
    <glyph glyph-name="Wacute" unicode="&#x1e82;" horiz-adv-x="978" 
d="M680 -12h-4l-187 479l-187 -479h-4l-288 747h113l177 -478l187 478h4l187 -478l177 478h113zM533 772h-108l133 115h121z" />
    <glyph glyph-name="wacute" unicode="&#x1e83;" horiz-adv-x="764" 
d="M530 -10h-4l-144 298l-145 -298h-4l-223 512h110l122 -291l138 291h4l138 -291l122 291h109zM422 576h-99l138 131h116z" />
    <glyph glyph-name="Wdieresis" unicode="&#x1e84;" horiz-adv-x="978" 
d="M680 -12h-4l-187 479l-187 -479h-4l-288 747h113l177 -478l187 478h4l187 -478l177 478h113zM403 883q24 0 39.5 -15.5t15.5 -38.5t-15.5 -38.5t-39.5 -15.5q-23 0 -38.5 15.5t-15.5 38.5t15.5 38.5t38.5 15.5zM574 883q23 0 39 -15.5t16 -38.5t-16 -38.5t-39 -15.5
t-38.5 15.5t-15.5 38.5t15.5 38.5t38.5 15.5z" />
    <glyph glyph-name="wdieresis" unicode="&#x1e85;" horiz-adv-x="764" 
d="M530 -10h-4l-144 298l-145 -298h-4l-223 512h110l122 -291l138 291h4l138 -291l122 291h109zM296 695q24 0 39.5 -15.5t15.5 -38.5t-15.5 -38.5t-39.5 -15.5q-23 0 -38.5 15.5t-15.5 38.5t15.5 38.5t38.5 15.5zM467 695q23 0 39 -15.5t16 -38.5t-16 -38.5t-39 -15.5
t-38.5 15.5t-15.5 38.5t15.5 38.5t38.5 15.5z" />
    <glyph glyph-name="Ygrave" unicode="&#x1ef2;" horiz-adv-x="660" 
d="M381 311v-311h-102v309l-272 425h119l204 -322l203 322h120zM384 772h-108l-146 115h121z" />
    <glyph glyph-name="ygrave" unicode="&#x1ef3;" horiz-adv-x="552" 
d="M170 -230h-112l165 312l-207 420h109l151 -310l151 310h110zM322 576h-99l-155 131h116z" />
    <glyph glyph-name="endash" unicode="&#x2013;" horiz-adv-x="556" 
d="M515 213h-475v91h475v-91z" />
    <glyph glyph-name="emdash" unicode="&#x2014;" horiz-adv-x="800" 
d="M760 213h-720v91h720v-91z" />
    <glyph glyph-name="quoteleft" unicode="&#x2018;" horiz-adv-x="185" 
d="M134 514q-13 -5 -24 -5q-30 0 -50 20t-20 50q0 12 4 22t9 18l77 159h4v-264z" />
    <glyph glyph-name="quoteright" unicode="&#x2019;" horiz-adv-x="185" 
d="M75 752q30 0 49.5 -19.5t19.5 -49.5q0 -12 -3.5 -22t-8.5 -19l-78 -159h-4v265q11 4 25 4z" />
    <glyph glyph-name="quotesinglbase" unicode="&#x201a;" horiz-adv-x="185" 
d="M75 120q30 0 49.5 -20t19.5 -50q0 -12 -3.5 -21.5t-8.5 -18.5l-78 -159h-4v264q13 5 25 5z" />
    <glyph glyph-name="quotedblleft" unicode="&#x201c;" horiz-adv-x="363" 
d="M134 514q-13 -5 -24 -5q-30 0 -50 20t-20 50q0 12 4 22t9 18l77 159h4v-264zM312 514q-13 -5 -24 -5q-30 0 -50 20t-20 50q0 12 4 22t9 18l77 159h4v-264z" />
    <glyph glyph-name="quotedblright" unicode="&#x201d;" horiz-adv-x="363" 
d="M75 752q30 0 49.5 -19.5t19.5 -49.5q0 -12 -3.5 -22t-8.5 -19l-78 -159h-4v265q11 4 25 4zM253 752q30 0 49.5 -19.5t19.5 -49.5q0 -12 -3.5 -22t-8.5 -19l-78 -159h-4v265q11 4 25 4z" />
    <glyph glyph-name="quotedblbase" unicode="&#x201e;" horiz-adv-x="375" 
d="M75 120q30 0 49.5 -20t19.5 -50q0 -12 -3.5 -21.5t-8.5 -18.5l-78 -159h-4v264q13 5 25 5zM265 120q30 0 49.5 -20t19.5 -50q0 -12 -3.5 -21.5t-8.5 -18.5l-78 -159h-4v264q13 5 25 5z" />
    <glyph glyph-name="dagger" unicode="&#x2020;" horiz-adv-x="492" 
d="M294 557h169v-89h-169v-468h-97v468h-168v89h168v178h97v-178z" />
    <glyph glyph-name="daggerdbl" unicode="&#x2021;" horiz-adv-x="492" 
d="M295 557h169v-89h-169v-201h168v-89h-168v-178h-97v178h-169v89h169v201h-169v89h169v178h97v-178z" />
    <glyph glyph-name="bullet" unicode="&#x2022;" horiz-adv-x="295" 
d="M147 370q49 0 80.5 -31.5t31.5 -80.5q0 -48 -31.5 -79.5t-80.5 -31.5q-48 0 -79.5 31.5t-31.5 79.5q0 49 31.5 80.5t79.5 31.5z" />
    <glyph glyph-name="ellipsis" unicode="&#x2026;" horiz-adv-x="674" 
d="M107 128q30 0 49.5 -19t19.5 -50q0 -30 -19.5 -49.5t-49.5 -19.5t-49.5 19.5t-19.5 49.5t19.5 49.5t49.5 19.5zM337 128q30 0 49.5 -19t19.5 -50q0 -30 -19.5 -49.5t-49.5 -19.5t-49.5 19.5t-19.5 49.5t19.5 49.5t49.5 19.5zM567 128q30 0 49.5 -19t19.5 -50
q0 -30 -19.5 -49.5t-49.5 -19.5t-49.5 19.5t-19.5 49.5t19.5 49.5t49.5 19.5z" />
    <glyph glyph-name="perthousand" unicode="&#x2030;" horiz-adv-x="1280" 
d="M239 0h-97l479 735h97zM202 748q38 0 70.5 -14t56.5 -39t37.5 -59t13.5 -74t-13.5 -73.5t-37.5 -58t-56.5 -38t-70.5 -13.5q-39 0 -72 13.5t-56.5 38t-37 58t-13.5 73.5t13.5 74t37 59t56.5 39t72 14zM202 675q-45 0 -74 -31.5t-29 -81.5q0 -48 29 -79.5t74 -31.5
t73.5 31.5t28.5 79.5q0 50 -28.5 81.5t-73.5 31.5zM659 356q39 0 71.5 -14t56.5 -38.5t37.5 -58.5t13.5 -74t-13.5 -73.5t-37.5 -58t-56.5 -38t-71.5 -13.5t-72 13.5t-56.5 38t-37 58t-13.5 73.5t13.5 74t37 58.5t56.5 38.5t72 14zM659 284q-45 0 -74 -32t-29 -81
q0 -48 29 -79.5t74 -31.5q22 0 41 8.5t32.5 23t21.5 35t8 44.5q0 49 -29 81t-74 32zM1062 356q38 0 70.5 -14t56.5 -38.5t37.5 -58.5t13.5 -74t-13.5 -73.5t-37.5 -58t-56.5 -38t-70.5 -13.5q-39 0 -72 13.5t-56.5 38t-37 58t-13.5 73.5t13.5 74t37 58.5t56.5 38.5t72 14z
M1062 284q-45 0 -74 -32t-29 -81q0 -48 29 -79.5t74 -31.5t73.5 31.5t28.5 79.5q0 49 -28.5 81t-73.5 32z" />
    <glyph glyph-name="guilsinglleft" unicode="&#x2039;" horiz-adv-x="348" 
d="M131 256l202 -202h-119l-199 200v4l199 200h119z" />
    <glyph glyph-name="guilsinglright" unicode="&#x203a;" horiz-adv-x="348" 
d="M333 258v-4l-199 -200h-119l202 202l-202 202h119z" />
    <glyph glyph-name="fraction" unicode="&#x2044;" horiz-adv-x="207" 
d="M-33 0h-91l364 734h91z" />
    <glyph glyph-name="uni2070" unicode="&#x2070;" horiz-adv-x="381" 
d="M196 821q37 0 66 -15.5t49 -43.5t30.5 -68.5t10.5 -89.5q0 -50 -10.5 -90t-30.5 -68.5t-49 -44t-66 -15.5q-75 0 -116.5 59.5t-41.5 158.5t41.5 158t116.5 59zM196 755q-43 0 -63 -41t-20 -110t20 -110.5t63 -41.5q42 0 61.5 41.5t19.5 110.5t-19.5 110t-61.5 41z" />
    <glyph glyph-name="uni2074" unicode="&#x2074;" horiz-adv-x="366" 
d="M295 518h55v-60h-55v-64h-72v65h-216v2l286 361h2v-304zM130 517h94v122z" />
    <glyph glyph-name="uni2075" unicode="&#x2075;" horiz-adv-x="351" 
d="M300 747h-165v-102q9 5 21 8t27 3q31 0 57.5 -8.5t46 -25.5t30.5 -42.5t11 -59.5q0 -29 -10 -53.5t-29 -42.5t-45.5 -28t-59.5 -10q-110 0 -145 93l63 31q15 -57 77 -57q32 0 53 19.5t21 51.5q0 30 -21 50t-56 20q-22 0 -38.5 -7t-27.5 -15l-49 21v220h239v-66z" />
    <glyph glyph-name="uni2076" unicode="&#x2076;" horiz-adv-x="358" 
d="M186 666q30 -1 56.5 -11.5t46.5 -29t31.5 -44t11.5 -55.5q0 -31 -12 -56.5t-32 -44t-47.5 -29t-57.5 -10.5t-57 10.5t-47.5 29t-32 44t-11.5 56.5q0 48 30 86l136 201h84zM183 604q-32 0 -53.5 -21.5t-21.5 -56.5t21.5 -56t53.5 -21t54 21t22 56t-22 56.5t-54 21.5z" />
    <glyph glyph-name="uni2077" unicode="&#x2077;" horiz-adv-x="352" 
d="M338 809l-217 -415h-81l189 351h-196v68h305v-4z" />
    <glyph glyph-name="uni2078" unicode="&#x2078;" horiz-adv-x="358" 
d="M181 821q27 0 51 -8.5t42 -24.5t28.5 -37.5t10.5 -47.5q0 -29 -14 -51t-37 -36q31 -17 49.5 -43t18.5 -58q0 -28 -12 -51.5t-32 -41t-47 -27t-58 -9.5q-30 0 -56.5 9.5t-47 27t-32 41t-11.5 51.5q0 32 18.5 58.5t48.5 41.5q-23 14 -36.5 36.5t-13.5 51.5q0 26 10.5 47.5
t28 37.5t41 24.5t50.5 8.5zM181 580q-32 0 -53.5 -19t-21.5 -48t21.5 -47.5t53.5 -18.5q33 0 55 18.5t22 47.5t-22 48t-55 19zM181 760q-27 0 -45.5 -17t-18.5 -43q0 -27 18.5 -43.5t45.5 -16.5q28 0 46.5 16.5t18.5 43.5q0 26 -18.5 43t-46.5 17z" />
    <glyph glyph-name="uni2079" unicode="&#x2079;" horiz-adv-x="358" 
d="M184 820q30 0 57 -10t47.5 -28.5t32 -44t11.5 -56.5q0 -50 -30 -86l-136 -201h-84l99 147q-30 0 -56.5 11t-46.5 29.5t-31.5 44t-11.5 55.5q0 31 12 56.5t32 44t47.5 28.5t57.5 10zM184 758q-32 0 -54 -21t-22 -56t22 -56.5t54 -21.5t53.5 21.5t21.5 56.5t-21.5 56
t-53.5 21z" />
    <glyph glyph-name="uni207F" unicode="&#x207f;" horiz-adv-x="423" 
d="M241 748q65 0 99 -42t34 -112v-206h-81v202q0 37 -19 59.5t-53 22.5q-29 0 -48.5 -14t-34.5 -35v-235h-80v353h72l3 -40q14 17 41.5 32t66.5 15z" />
    <glyph glyph-name="Euro" unicode="&#x20ac;" horiz-adv-x="659" 
d="M426 248h-211q21 -81 70.5 -126.5t120.5 -45.5q59 0 97 22.5t65 52.5l61 -71q-40 -42 -93 -68t-130 -26q-57 0 -105.5 18t-86.5 51.5t-65 82t-40 110.5h-74v67h64q-2 13 -2 25.5v26.5t0.5 27.5t1.5 27.5h-64v67h74q27 122 104.5 190.5t190.5 68.5q79 0 131 -26t90 -67
l-61 -71q-25 29 -62 51.5t-98 22.5q-70 0 -119 -44.5t-70 -124.5h211v-67h-223q-1 -14 -1.5 -27.5t-0.5 -27.5t0.5 -27t1.5 -25h223v-67z" />
    <glyph glyph-name="afii61289" unicode="&#x2113;" horiz-adv-x="584" 
d="M332 750q72 0 114 -40.5t42 -111.5q0 -50 -19 -97t-50.5 -90.5t-72 -84.5t-82.5 -79v-81q0 -21 3.5 -38t12.5 -29.5t24 -19t38 -6.5q27 0 48 13t37.5 31t28.5 37t20 31l57 -45q-12 -20 -31.5 -46.5t-46 -49.5t-60.5 -39t-74 -16q-42 0 -70 11.5t-44.5 31t-23 45
t-6.5 53.5v49q-19 -17 -45 -40t-43 -36l-47 68q14 12 31 26.5t35 30t35 31t30 27.5v290q0 87 37 130.5t122 43.5zM332 676q-75 0 -75 -92v-240q29 27 56 57t48 61.5t33.5 65t12.5 66.5q0 36 -18 59t-57 23z" />
    <glyph glyph-name="trademark" unicode="&#x2122;" horiz-adv-x="845" 
d="M354 664h-129v-305h-74v305h-129v71h332v-71zM807 359h-73v170l-123 -173h-4l-122 173v-170h-73v383h2l195 -265l196 265h2v-383z" />
    <glyph glyph-name="uni2126" unicode="&#x2126;" horiz-adv-x="858" 
d="M433 749q74 0 135.5 -26t105.5 -71.5t68.5 -108.5t24.5 -137q0 -57 -12 -103t-31 -83t-41 -65t-43 -49h182v-106h-337v101q36 26 67.5 57.5t55 69t36.5 81t13 93.5q0 53 -15 97t-44 76t-70.5 50t-94.5 18t-94.5 -18t-70 -50t-44 -76t-15.5 -97q0 -50 13 -93.5t36.5 -81
t55 -69t67.5 -57.5v-101h-336v106h182q-21 21 -43 49t-41 65t-31 83t-12 103q0 74 24.5 137t68.5 108.5t105 71.5t135 26z" />
    <glyph glyph-name="estimated" unicode="&#x212e;" horiz-adv-x="591" 
d="M308 508q-38 0 -72.5 -11t-54.5 -28q-18 -11 -25 -26.5t-7 -30.5v-106h299v109q0 24 -5.5 38t-22.5 24q-22 15 -49 23t-63 8zM308 536q52 0 97.5 -17t79 -50t52.5 -81t19 -110h-407v-165q0 -18 6.5 -32.5t24.5 -25.5q23 -17 53.5 -28t74.5 -11q69 0 124.5 32t97.5 95
l23 -14q-41 -65 -102.5 -103t-142.5 -38q-57 0 -107 19.5t-87 55.5t-58 86.5t-21 112.5q0 61 21 111.5t58 86.5t87 56t107 20z" />
    <glyph glyph-name="partialdiff" unicode="&#x2202;" horiz-adv-x="538" 
d="M251 748q81 0 130.5 -40t77 -102t37 -138t9.5 -148q0 -57 -5.5 -108t-28.5 -95q-31 -63 -83 -94t-118 -31q-51 0 -94 17.5t-75 48.5t-50 74.5t-18 95.5t17.5 96t48.5 75t73 48.5t92 17.5q30 0 53 -7.5t40.5 -18.5t29.5 -23.5t19 -22.5q-2 59 -12 107.5t-29.5 83t-49.5 53
t-71 18.5q-47 0 -79.5 -21t-52.5 -53l-67 62q32 44 82 74.5t124 30.5zM271 373q-30 0 -55 -11t-44 -30t-29.5 -46t-10.5 -58t10.5 -57.5t29 -45.5t44 -29.5t55.5 -10.5t55 10.5t43 29.5t28.5 45.5t10.5 57.5t-10.5 58t-28.5 46t-43 30t-55 11z" />
    <glyph glyph-name="uni2206" unicode="&#x2206;" horiz-adv-x="721" 
d="M686 0h-651l326 646zM164 77h393l-196 392z" />
    <glyph glyph-name="product" unicode="&#x220f;" horiz-adv-x="706" 
d="M671 648h-126v-749h-91v749h-202v-749h-92v749h-125v92h636v-92z" />
    <glyph glyph-name="summation" unicode="&#x2211;" horiz-adv-x="610" 
d="M563 642h-389l183 -259l-190 -285h408v-98h-540v67l208 314l-205 292v67h525v-98z" />
    <glyph glyph-name="minus" unicode="&#x2212;" horiz-adv-x="486" 
d="M446 305h-407v90h407v-90z" />
    <glyph glyph-name="radical" unicode="&#x221a;" horiz-adv-x="697" 
d="M667 660l-296 -733l-173 334l-120 -71l-45 72l214 127l121 -247l217 553z" />
    <glyph glyph-name="infinity" unicode="&#x221e;" horiz-adv-x="749" 
d="M544 468q39 0 71 -14t54.5 -39t35 -58t12.5 -70q0 -38 -12.5 -71t-35 -58t-54.5 -39t-71 -14q-28 0 -52 9t-44.5 22.5t-38 29.5t-31.5 30l-19 20l-17 -20q-30 -31 -66 -53.5t-80 -22.5q-37 0 -66 13t-49.5 35.5t-31 52.5t-10.5 65q0 34 10.5 64.5t31 53.5t49.5 36t66 13
q23 0 42.5 -6.5t37 -17t33.5 -25t32 -30.5l18 -20l13 16q18 19 36.5 37t39 31.5t44 21.5t52.5 8zM545 384q-37 0 -64.5 -24t-54.5 -56l-15 -19l18 -20q11 -12 23.5 -25.5t27 -25t30.5 -18.5t35 -7q41 0 65 28.5t24 69.5t-24 69t-65 28zM194 372q-36 0 -56.5 -25.5
t-20.5 -60.5t20.5 -60t56.5 -25q28 0 53 17.5t47 45.5l16 21l-17 20q-23 29 -46.5 48t-52.5 19z" />
    <glyph glyph-name="integral" unicode="&#x222b;" horiz-adv-x="434" 
d="M297 750q40 0 69 -8t46 -16l-19 -76q-14 7 -32.5 12.5t-41.5 5.5q-29 0 -45 -20t-16 -65v-603q0 -92 -33 -131t-98 -39q-41 0 -70.5 8t-46.5 16l19 76q14 -8 33.5 -13t42.5 -5q31 0 48 21t17 67v603q0 91 32 129t95 38z" />
    <glyph glyph-name="approxequal" unicode="&#x2248;" horiz-adv-x="588" 
d="M190 326q39 0 66 -13.5t48.5 -30t43 -30t50.5 -13.5q41 0 66.5 23t38.5 56l59 -45q-23 -57 -65 -91t-99 -34q-27 0 -47 6.5t-36 16.5t-29.5 21t-27.5 21t-30.5 16.5t-37.5 6.5q-41 0 -66.5 -23t-38.5 -56l-59 45q23 57 64.5 90.5t99.5 33.5zM190 548q39 0 66 -13.5
t48.5 -30t43 -30t50.5 -13.5q41 0 66.5 23t38.5 56l59 -45q-23 -57 -65 -91t-99 -34q-41 0 -66.5 13.5t-46.5 30t-42 30t-53 13.5q-41 0 -66.5 -22.5t-38.5 -56.5l-59 45q23 57 64.5 91t99.5 34z" />
    <glyph glyph-name="notequal" unicode="&#x2260;" horiz-adv-x="486" 
d="M446 185h-221l-36 -98h-86l36 98h-100v90h133l54 148h-187v91h221l44 118h86l-44 -118h100v-91h-134l-54 -148h188v-90z" />
    <glyph glyph-name="lessequal" unicode="&#x2264;" horiz-adv-x="354" 
d="M145 431l189 -167h-128l-186 165v4l186 166h128zM334 119h-314v90h314v-90z" />
    <glyph glyph-name="greaterequal" unicode="&#x2265;" horiz-adv-x="354" 
d="M334 433v-4l-186 -165h-128l189 167l-189 168h128zM334 119h-314v90h314v-90z" />
    <glyph glyph-name="lozenge" unicode="&#x25ca;" horiz-adv-x="569" 
d="M543 336l-222 -401h-61l-223 401l223 402h61zM138 336l153 -262l152 262l-152 261z" />
    <glyph glyph-name="uniF6C3" unicode="&#xf6c3;" horiz-adv-x="158" 
d="M59 -51q30 0 49.5 -19.5t19.5 -49.5q0 -24 -12 -40l-78 -137h-4v242q11 4 25 4z" />
    <glyph glyph-name="germandbls.case" horiz-adv-x="660" 
d="M331 748q44 0 81 -9t67.5 -24.5t56.5 -36.5t48 -46l-129 -195q30 -9 61 -26t55.5 -43t40 -63t15.5 -87t-18 -92.5t-50 -73.5t-78 -48t-101 -17q-49 0 -83.5 9t-57.5 23l36 86q22 -13 44 -18.5t61 -5.5q27 0 52 10t44 28t30.5 43.5t11.5 56.5q0 40 -17 68t-45.5 46
t-67 26.5t-81.5 8.5l-2 5l155 238q-22 20 -55 31t-74 11q-72 0 -116 -42t-44 -120v-491h-100v491q0 59 20 106.5t54.5 81t82 51.5t103.5 18z" />
    <glyph glyph-name="endash_greater.calt" horiz-adv-x="662" 
d="M621 277l-289 -262l-47 57l184 164h-429v81h430l-185 165l47 57z" />
    <glyph glyph-name="emdash_greater.calt" horiz-adv-x="987" 
d="M947 277l-290 -262l-47 57l184 164h-754v81h755l-185 165l47 57z" />
    <glyph glyph-name="less_endash.calt" horiz-adv-x="662" 
d="M377 482l-185 -165h429v-81h-428l184 -164l-46 -57l-291 262l291 262z" />
    <glyph glyph-name="less_emdash.calt" horiz-adv-x="987" 
d="M377 482l-185 -165h755v-81h-754l184 -164l-46 -57l-291 262l291 262z" />
    <glyph glyph-name="at.case" horiz-adv-x="859" 
d="M429 762q88 0 161.5 -28.5t126.5 -80t82 -123.5t29 -158q0 -50 -11.5 -91t-33 -70.5t-53.5 -46t-73 -16.5q-42 0 -66.5 17t-35.5 43l-2 5q-20 -26 -55.5 -45.5t-89.5 -19.5q-42 0 -77 16.5t-60 45.5t-39 68.5t-14 86.5t14 87t39 69t60 45.5t77 16.5q54 0 86.5 -16.5
t51.5 -40.5l3 49h76v-310q0 -44 41 -44q40 0 61.5 42t21.5 109q0 69 -23 126.5t-65 99.5t-101 65.5t-131 23.5q-71 0 -129.5 -24t-100.5 -67t-65.5 -101.5t-23.5 -127.5q0 -70 23 -128.5t64.5 -101t99.5 -66t127 -23.5t129 24l23 -71q-70 -28 -152 -28q-87 0 -159 29
t-124 81.5t-81 124.5t-29 159q0 86 29.5 158.5t82 125t125.5 82t161 29.5zM427 510q-55 0 -90 -39.5t-35 -105.5t35 -105t90 -39q42 0 69 19t46 46v159q-18 25 -45.5 45t-69.5 20z" />
    <glyph glyph-name="glyph179" horiz-adv-x="295" 
d="M280 772h-108l-146 115h121z" />
    <glyph glyph-name="glyph180" horiz-adv-x="295" 
d="M123 772h-108l133 115h121z" />
    <glyph glyph-name="glyph181" horiz-adv-x="359" 
d="M338 771h-91l-68 61l-68 -61h-91l159 145z" />
    <glyph glyph-name="glyph182" horiz-adv-x="359" 
d="M179 763l-159 144h91l68 -60l68 60h91z" />
    <glyph glyph-name="glyph183" horiz-adv-x="368" 
d="M122 915q32 0 49.5 -12t29.5 -27t22.5 -27t27.5 -12t24.5 20t7.5 52h64q0 -72 -29.5 -105.5t-72.5 -33.5q-33 0 -49.5 12t-27.5 27t-21 27t-28 12q-19 0 -26.5 -20t-7.5 -52h-65q0 73 30 106t72 33z" />
    <glyph glyph-name="glyph184" horiz-adv-x="320" 
d="M74 883q24 0 39.5 -15.5t15.5 -38.5t-15.5 -38.5t-39.5 -15.5q-23 0 -38.5 15.5t-15.5 38.5t15.5 38.5t38.5 15.5zM245 883q23 0 39 -15.5t16 -38.5t-16 -38.5t-39 -15.5t-38.5 15.5t-15.5 38.5t15.5 38.5t38.5 15.5z" />
    <glyph glyph-name="glyph185" horiz-adv-x="300" 
d="M280 788h-260v69h260v-69z" />
    <glyph glyph-name="glyph186" horiz-adv-x="345" 
d="M325 917q0 -32 -11.5 -58.5t-32 -45.5t-48 -30t-60.5 -11t-61 11t-48.5 30t-32 45.5t-11.5 58.5h71q0 -32 22.5 -55t59.5 -23t59 23t22 55h71v0z" />
    <glyph glyph-name="glyph187" horiz-adv-x="260" 
d="M130 986q47 0 78 -30.5t31 -77.5q0 -48 -31 -78t-78 -30q-48 0 -79 30t-31 78q0 47 31 77.5t79 30.5zM130 931q-22 0 -37 -15t-15 -38t15 -37.5t37 -14.5t37 14.5t15 37.5t-15 38t-37 15z" />
    <glyph glyph-name="glyph188" horiz-adv-x="389" 
d="M144 774h-85l96 119h87zM306 774h-85l96 119h87z" />
    <glyph glyph-name="glyph189" horiz-adv-x="160" 
d="M79 890q26 0 43 -17t17 -43t-17 -42.5t-43 -16.5t-42.5 16.5t-16.5 42.5t16.5 43t42.5 17z" />
    <glyph glyph-name="parenleft.case" horiz-adv-x="291" 
d="M271 721q-24 -29 -47.5 -63.5t-42 -77.5t-30 -95.5t-11.5 -117.5t11.5 -117.5t30 -95.5t42 -77.5t47.5 -63.5l-74 -54q-26 31 -53 71.5t-48.5 90.5t-35 111t-13.5 135q0 73 13.5 134t35 111.5t48.5 90.5t53 72z" />
    <glyph glyph-name="parenright.case" horiz-adv-x="291" 
d="M94 775q27 -32 53.5 -72t48 -90.5t35 -111.5t13.5 -134q0 -74 -13.5 -135t-35 -111t-48 -90.5t-53.5 -71.5l-74 54q24 29 47.5 63.5t42 77.5t30 95.5t11.5 117.5t-11.5 117.5t-30 95.5t-42 77.5t-47.5 63.5l74 54v0z" />
    <glyph glyph-name="bracketleft.case" horiz-adv-x="308" 
d="M283 697h-134v-660h134v-80h-228v820h228v-80z" />
    <glyph glyph-name="bracketright.case" horiz-adv-x="314" 
d="M259 -43h-234v80h139v660h-139v80h234v-820z" />
    <glyph glyph-name="braceleft.case" horiz-adv-x="335" 
d="M310 697q-26 0 -48.5 -7.5t-38 -23.5t-21.5 -42t0 -62l9 -65q13 -53 -5.5 -85t-51.5 -45q33 -13 51.5 -45t5.5 -85l-9 -65q-6 -36 0 -62t21.5 -42t38 -23.5t48.5 -7.5v-80q-54 0 -98 14.5t-71.5 44t-36.5 73t6 101.5l9 63q6 24 1 42.5t-18 32t-33 23t-43 14.5v4
q23 5 43 14.5t33 23t18 32t-1 42.5l-9 63q-15 58 -6 101.5t36.5 72.5t71.5 44t98 15v-80z" />
    <glyph glyph-name="braceright.case" horiz-adv-x="335" 
d="M25 777q54 0 98 -15t72 -44t37 -72.5t-6 -101.5l-10 -63q-6 -24 -1 -42.5t18 -32t33 -23t43 -14.5v-4q-23 -5 -43 -14.5t-33 -23t-18 -32t1 -42.5l10 -63q15 -58 6 -101.5t-37 -73t-72 -44t-98 -14.5v80q26 0 48.5 7.5t38 23.5t21.5 42t0 62l-9 65q-7 27 -5 48t10 37
t21.5 27.5t30.5 17.5q-17 6 -30.5 17.5t-21.5 27.5t-10 37t5 48l9 65q6 36 0 62t-21.5 42t-38 23.5t-48.5 7.5v80v0z" />
    <glyph glyph-name="guilsinglleft.case" horiz-adv-x="348" 
d="M131 354l202 -222h-119l-199 220v4l199 220h119z" />
    <glyph glyph-name="guilsinglright.case" horiz-adv-x="348" 
d="M333 356v-4l-199 -220h-119l202 222l-202 222h119z" />
    <glyph glyph-name="guillemotleft.case" horiz-adv-x="498" 
d="M110 354l145 -222h-93l-147 220v4l147 220h93zM338 354l145 -222h-92l-147 220v4l147 220h92z" />
    <glyph glyph-name="guillemotright.case" horiz-adv-x="498" 
d="M255 356v-4l-148 -220h-92l145 222l-145 222h92zM483 356v-4l-147 -220h-92l144 222l-144 222h92z" />
    <glyph glyph-name="exclamdown.case" horiz-adv-x="262" 
d="M83 530h98v-530h-98v530zM132 620q-28 0 -46.5 18.5t-18.5 45.5q0 28 18.5 46t46.5 18q27 0 45 -18t18 -46q0 -27 -18 -45.5t-45 -18.5z" />
    <glyph glyph-name="questiondown.case" horiz-adv-x="491" 
d="M253 -13q-48 0 -88 15t-68.5 42t-44 64t-15.5 80t12.5 73t30.5 52.5t40 40.5t40 36t30.5 39.5t12.5 51.5v49h99v-61q0 -37 -12 -63.5t-30 -47.5t-39 -38t-39 -36t-30 -41.5t-12 -53.5q0 -54 33 -83t81 -29q51 0 80.5 26.5t39.5 77.5l97 -17q-18 -84 -71.5 -130.5
t-146.5 -46.5zM252 620q-28 0 -46 18.5t-18 45.5q0 28 18 46t46 18t46 -18t18 -46q0 -27 -18 -45.5t-46 -18.5z" />
    <glyph glyph-name="endash.case" horiz-adv-x="556" 
d="M515 311h-475v91h475v-91z" />
    <glyph glyph-name="periodcentered.case" horiz-adv-x="192" 
d="M96 420q29 0 47.5 -18.5t18.5 -47.5q0 -28 -18.5 -46.5t-47.5 -18.5t-47.5 18.5t-18.5 46.5q0 29 18.5 47.5t47.5 18.5z" />
    <glyph glyph-name="emdash.case" horiz-adv-x="800" 
d="M760 311h-720v91h720v-91z" />
    <glyph glyph-name="hyphen.case" horiz-adv-x="437" 
d="M396 311h-356v91h356v-91z" />
    <glyph glyph-name="zero.dnom" horiz-adv-x="390" 
d="M196 427q37 0 66 -15.5t49 -43.5t30.5 -68.5t10.5 -89.5q0 -50 -10.5 -90t-30.5 -68.5t-49 -44t-66 -15.5q-75 0 -116.5 59.5t-41.5 158.5t41.5 158t116.5 59zM196 361q-43 0 -63 -41t-20 -110t20 -110.5t63 -41.5q42 0 61.5 41.5t19.5 110.5t-19.5 110t-61.5 41z" />
    <glyph glyph-name="one.dnom" horiz-adv-x="266" 
d="M203 0h-74v308l-71 -45l-32 67l175 97h2v-427z" />
    <glyph glyph-name="two.dnom" horiz-adv-x="354" 
d="M174 427q63 0 101.5 -36.5t38.5 -93.5q0 -37 -14 -65t-39 -59l-89 -107h146v-66h-273v4l154 207q22 26 31 45t9 42q0 29 -18 46t-47 17q-58 0 -70 -65l-67 15q23 116 137 116z" />
    <glyph glyph-name="three.dnom" horiz-adv-x="350" 
d="M175 427q30 0 54.5 -9.5t42.5 -26.5t27.5 -39.5t9.5 -49.5q0 -33 -15.5 -54t-39.5 -32q30 -12 48.5 -36t18.5 -59q0 -57 -38.5 -93t-104.5 -36q-115 0 -145 109l66 16q9 -27 27 -42.5t52 -15.5q31 0 50 18t19 48q0 27 -20.5 45.5t-53.5 18.5h-47v57h49q24 1 42.5 14.5
t18.5 42.5q0 26 -18 42t-45 16q-51 0 -68 -53l-64 28q14 43 47 67t87 24z" />
    <glyph glyph-name="four.dnom" horiz-adv-x="375" 
d="M295 124h55v-60h-55v-64h-72v65h-216v2l286 361h2v-304zM130 123h94v122z" />
    <glyph glyph-name="five.dnom" horiz-adv-x="360" 
d="M300 353h-165v-102q9 5 21 8t27 3q31 0 57.5 -8.5t46 -25.5t30.5 -42.5t11 -59.5q0 -29 -10 -53.5t-29 -42.5t-45.5 -28t-59.5 -10q-110 0 -145 93l63 31q15 -57 77 -57q32 0 53 19.5t21 51.5q0 30 -21 50t-56 20q-22 0 -38.5 -7t-27.5 -15l-49 21v220h239v-66z" />
    <glyph glyph-name="six.dnom" horiz-adv-x="367" 
d="M186 272q30 -1 56.5 -11.5t46.5 -29t31.5 -44t11.5 -55.5q0 -31 -12 -56.5t-32 -44t-47.5 -29t-57.5 -10.5t-57 10.5t-47.5 29t-32 44t-11.5 56.5q0 48 30 86l136 201h84zM183 210q-32 0 -53.5 -21.5t-21.5 -56.5t21.5 -56t53.5 -21t54 21t22 56t-22 56.5t-54 21.5z" />
    <glyph glyph-name="seven.dnom" horiz-adv-x="361" 
d="M338 415l-217 -415h-81l189 351h-196v68h305v-4z" />
    <glyph glyph-name="eight.dnom" horiz-adv-x="367" 
d="M181 427q27 0 51 -8.5t42 -24.5t28.5 -37.5t10.5 -47.5q0 -29 -14 -51t-37 -36q31 -17 49.5 -43t18.5 -58q0 -28 -12 -51.5t-32 -41t-47 -27t-58 -9.5q-30 0 -56.5 9.5t-47 27t-32 41t-11.5 51.5q0 32 18.5 58.5t48.5 41.5q-23 14 -36.5 36.5t-13.5 51.5q0 26 10.5 47.5
t28 37.5t41 24.5t50.5 8.5zM181 186q-32 0 -53.5 -19t-21.5 -48t21.5 -47.5t53.5 -18.5q33 0 55 18.5t22 47.5t-22 48t-55 19zM181 366q-27 0 -45.5 -17t-18.5 -43q0 -27 18.5 -43.5t45.5 -16.5q28 0 46.5 16.5t18.5 43.5q0 26 -18.5 43t-46.5 17z" />
    <glyph glyph-name="nine.dnom" horiz-adv-x="367" 
d="M184 426q30 0 57 -10t47.5 -28.5t32 -44t11.5 -56.5q0 -50 -30 -86l-136 -201h-84l99 147q-30 0 -56.5 11t-46.5 29.5t-31.5 44t-11.5 55.5q0 31 12 56.5t32 44t47.5 28.5t57.5 10zM184 364q-32 0 -54 -21t-22 -56t22 -56.5t54 -21.5t53.5 21.5t21.5 56.5t-21.5 56
t-53.5 21z" />
    <glyph glyph-name="zero.numr" horiz-adv-x="381" 
d="M196 741q37 0 66 -15.5t49 -43.5t30.5 -68.5t10.5 -89.5q0 -50 -10.5 -90t-30.5 -68.5t-49 -44t-66 -15.5q-75 0 -116.5 59.5t-41.5 158.5t41.5 158t116.5 59zM196 675q-43 0 -63 -41t-20 -110t20 -110.5t63 -41.5q42 0 61.5 41.5t19.5 110.5t-19.5 110t-61.5 41z" />
    <glyph glyph-name="one.numr" horiz-adv-x="257" 
d="M203 314h-74v308l-71 -45l-32 67l175 97h2v-427z" />
    <glyph glyph-name="two.numr" horiz-adv-x="345" 
d="M174 741q63 0 101.5 -36.5t38.5 -93.5q0 -37 -14 -65t-39 -59l-89 -107h146v-66h-273v4l154 207q22 26 31 45t9 42q0 29 -18 46t-47 17q-58 0 -70 -65l-67 15q23 116 137 116z" />
    <glyph glyph-name="three.numr" horiz-adv-x="340" 
d="M175 741q30 0 54.5 -9.5t42.5 -26.5t27.5 -39.5t9.5 -49.5q0 -33 -15.5 -54t-39.5 -32q30 -12 48.5 -36t18.5 -59q0 -57 -38.5 -93t-104.5 -36q-115 0 -145 109l66 16q9 -27 27 -42.5t52 -15.5q31 0 50 18t19 48q0 27 -20.5 45.5t-53.5 18.5h-47v57h49q24 1 42.5 14.5
t18.5 42.5q0 26 -18 42t-45 16q-51 0 -68 -53l-64 28q14 43 47 67t87 24z" />
    <glyph glyph-name="four.numr" horiz-adv-x="366" 
d="M295 438h55v-60h-55v-64h-72v65h-216v2l286 361h2v-304zM130 437h94v122z" />
    <glyph glyph-name="five.numr" horiz-adv-x="351" 
d="M300 667h-165v-102q9 5 21 8t27 3q31 0 57.5 -8.5t46 -25.5t30.5 -42.5t11 -59.5q0 -29 -10 -53.5t-29 -42.5t-45.5 -28t-59.5 -10q-110 0 -145 93l63 31q15 -57 77 -57q32 0 53 19.5t21 51.5q0 30 -21 50t-56 20q-22 0 -38.5 -7t-27.5 -15l-49 21v220h239v-66z" />
    <glyph glyph-name="six.numr" horiz-adv-x="358" 
d="M186 586q30 -1 56.5 -11.5t46.5 -29t31.5 -44t11.5 -55.5q0 -31 -12 -56.5t-32 -44t-47.5 -29t-57.5 -10.5t-57 10.5t-47.5 29t-32 44t-11.5 56.5q0 48 30 86l136 201h84zM183 524q-32 0 -53.5 -21.5t-21.5 -56.5t21.5 -56t53.5 -21t54 21t22 56t-22 56.5t-54 21.5z" />
    <glyph glyph-name="seven.numr" horiz-adv-x="352" 
d="M338 729l-217 -415h-81l189 351h-196v68h305v-4z" />
    <glyph glyph-name="eight.numr" horiz-adv-x="358" 
d="M181 741q27 0 51 -8.5t42 -24.5t28.5 -37.5t10.5 -47.5q0 -29 -14 -51t-37 -36q31 -17 49.5 -43t18.5 -58q0 -28 -12 -51.5t-32 -41t-47 -27t-58 -9.5q-30 0 -56.5 9.5t-47 27t-32 41t-11.5 51.5q0 32 18.5 58.5t48.5 41.5q-23 14 -36.5 36.5t-13.5 51.5q0 26 10.5 47.5
t28 37.5t41 24.5t50.5 8.5zM181 500q-32 0 -53.5 -19t-21.5 -48t21.5 -47.5t53.5 -18.5q33 0 55 18.5t22 47.5t-22 48t-55 19zM181 680q-27 0 -45.5 -17t-18.5 -43q0 -27 18.5 -43.5t45.5 -16.5q28 0 46.5 16.5t18.5 43.5q0 26 -18.5 43t-46.5 17z" />
    <glyph glyph-name="nine.numr" horiz-adv-x="358" 
d="M184 740q30 0 57 -10t47.5 -28.5t32 -44t11.5 -56.5q0 -50 -30 -86l-136 -201h-84l99 147q-30 0 -56.5 11t-46.5 29.5t-31.5 44t-11.5 55.5q0 31 12 56.5t32 44t47.5 28.5t57.5 10zM184 678q-32 0 -54 -21t-22 -56t22 -56.5t54 -21.5t53.5 21.5t21.5 56.5t-21.5 56
t-53.5 21z" />
    <glyph glyph-name="zero.inferior" horiz-adv-x="381" 
d="M196 327q37 0 66 -15.5t49 -43.5t30.5 -68.5t10.5 -89.5q0 -50 -10.5 -90t-30.5 -68.5t-49 -44t-66 -15.5q-75 0 -116.5 59.5t-41.5 158.5t41.5 158t116.5 59zM196 261q-43 0 -63 -41t-20 -110t20 -110.5t63 -41.5q42 0 61.5 41.5t19.5 110.5t-19.5 110t-61.5 41z" />
    <glyph glyph-name="one.inferior" horiz-adv-x="257" 
d="M203 -100h-74v308l-71 -45l-32 67l175 97h2v-427z" />
    <glyph glyph-name="two.inferior" horiz-adv-x="345" 
d="M174 327q63 0 101.5 -36.5t38.5 -93.5q0 -37 -14 -65t-39 -59l-89 -107h146v-66h-273v4l154 207q22 26 31 45t9 42q0 29 -18 46t-47 17q-58 0 -70 -65l-67 15q23 116 137 116z" />
    <glyph glyph-name="three.inferior" horiz-adv-x="340" 
d="M175 327q30 0 54.5 -9.5t42.5 -26.5t27.5 -39.5t9.5 -49.5q0 -33 -15.5 -54t-39.5 -32q30 -12 48.5 -36t18.5 -59q0 -57 -38.5 -93t-104.5 -36q-115 0 -145 109l66 16q9 -27 27 -42.5t52 -15.5q31 0 50 18t19 48q0 27 -20.5 45.5t-53.5 18.5h-47v57h49q24 1 42.5 14.5
t18.5 42.5q0 26 -18 42t-45 16q-51 0 -68 -53l-64 28q14 43 47 67t87 24z" />
    <glyph glyph-name="four.inferior" horiz-adv-x="366" 
d="M295 24h55v-60h-55v-64h-72v65h-216v2l286 361h2v-304zM130 23h94v122z" />
    <glyph glyph-name="five.inferior" horiz-adv-x="351" 
d="M300 253h-165v-102q9 5 21 8t27 3q31 0 57.5 -8.5t46 -25.5t30.5 -42.5t11 -59.5q0 -29 -10 -53.5t-29 -42.5t-45.5 -28t-59.5 -10q-110 0 -145 93l63 31q15 -57 77 -57q32 0 53 19.5t21 51.5q0 30 -21 50t-56 20q-22 0 -38.5 -7t-27.5 -15l-49 21v220h239v-66z" />
    <glyph glyph-name="six.inferior" horiz-adv-x="358" 
d="M186 172q30 -1 56.5 -11.5t46.5 -29t31.5 -44t11.5 -55.5q0 -31 -12 -56.5t-32 -44t-47.5 -29t-57.5 -10.5t-57 10.5t-47.5 29t-32 44t-11.5 56.5q0 48 30 86l136 201h84zM183 110q-32 0 -53.5 -21.5t-21.5 -56.5t21.5 -56t53.5 -21t54 21t22 56t-22 56.5t-54 21.5z" />
    <glyph glyph-name="seven.inferior" horiz-adv-x="352" 
d="M338 315l-217 -415h-81l189 351h-196v68h305v-4z" />
    <glyph glyph-name="eight.inferior" horiz-adv-x="358" 
d="M181 327q27 0 51 -8.5t42 -24.5t28.5 -37.5t10.5 -47.5q0 -29 -14 -51t-37 -36q31 -17 49.5 -43t18.5 -58q0 -28 -12 -51.5t-32 -41t-47 -27t-58 -9.5q-30 0 -56.5 9.5t-47 27t-32 41t-11.5 51.5q0 32 18.5 58.5t48.5 41.5q-23 14 -36.5 36.5t-13.5 51.5q0 26 10.5 47.5
t28 37.5t41 24.5t50.5 8.5zM181 86q-32 0 -53.5 -19t-21.5 -48t21.5 -47.5t53.5 -18.5q33 0 55 18.5t22 47.5t-22 48t-55 19zM181 266q-27 0 -45.5 -17t-18.5 -43q0 -27 18.5 -43.5t45.5 -16.5q28 0 46.5 16.5t18.5 43.5q0 26 -18.5 43t-46.5 17z" />
    <glyph glyph-name="nine.inferior" horiz-adv-x="358" 
d="M184 326q30 0 57 -10t47.5 -28.5t32 -44t11.5 -56.5q0 -50 -30 -86l-136 -201h-84l99 147q-30 0 -56.5 11t-46.5 29.5t-31.5 44t-11.5 55.5q0 31 12 56.5t32 44t47.5 28.5t57.5 10zM184 264q-32 0 -54 -21t-22 -56t22 -56.5t54 -21.5t53.5 21.5t21.5 56.5t-21.5 56
t-53.5 21z" />
    <glyph glyph-name="zero.tnum" horiz-adv-x="600" 
d="M300 748q61 0 109 -27t81 -76.5t50 -119.5t17 -157t-17 -157.5t-50 -120t-81 -76.5t-109 -27q-62 0 -109.5 27t-80.5 76.5t-50 120t-17 157.5t17 157t50 119.5t80.5 76.5t109.5 27zM300 659q-40 0 -69.5 -20.5t-49 -59t-29 -92t-9.5 -119.5t9.5 -120t29 -92.5t49 -59
t69.5 -20.5t69.5 20.5t49 59t29 92.5t9.5 120t-9.5 119.5t-29 92t-49 59t-69.5 20.5z" />
    <glyph glyph-name="one.tnum" horiz-adv-x="600" 
d="M383 91h138v-91h-382v91h145v478l-167 -96l-47 85l309 190h4v-657z" />
    <glyph glyph-name="two.tnum" horiz-adv-x="600" 
d="M291 748q50 0 91 -16t70.5 -45t46 -69.5t16.5 -88.5q0 -68 -24 -120t-68 -108l-168 -211h269v-90h-441v6l262 348q19 25 32.5 46.5t21.5 42t12 42t4 46.5q0 60 -35 93.5t-89 33.5q-56 0 -87.5 -30t-43.5 -93l-90 21q19 95 74.5 143.5t146.5 48.5z" />
    <glyph glyph-name="three.tnum" horiz-adv-x="600" 
d="M294 748q48 0 87.5 -15.5t68 -43.5t44 -66t15.5 -84q0 -62 -27.5 -99t-70.5 -57q55 -21 88.5 -65t33.5 -108q0 -50 -16.5 -91t-47 -70.5t-73 -45.5t-94.5 -16q-98 0 -155 48t-84 134l90 24q18 -54 51.5 -85t96.5 -31q59 0 95.5 36.5t36.5 98.5q0 28 -10.5 52t-29 41.5
t-45 27.5t-57.5 10h-81v79h82q23 0 44 7.5t37.5 21.5t26.5 36t10 51q0 56 -33 88t-84 32t-82.5 -27.5t-48.5 -77.5l-86 37q25 70 77.5 114t140.5 44z" />
    <glyph glyph-name="four.tnum" horiz-adv-x="600" 
d="M462 228h99v-90h-99v-138h-99v138h-331v4l425 599h5v-513zM201 227h163v230z" />
    <glyph glyph-name="five.tnum" horiz-adv-x="600" 
d="M495 645h-286v-217q18 10 42.5 17t55.5 7q51 0 94 -15.5t74 -45.5t48.5 -73.5t17.5 -98.5q0 -49 -16.5 -91.5t-46.5 -73.5t-73 -49t-97 -18q-94 0 -150.5 41.5t-85.5 117.5l86 40q16 -51 50 -80t94 -29q31 0 56.5 11t44 30.5t28.5 46t10 58.5q0 64 -39 104.5t-105 40.5
q-40 0 -71 -13.5t-53 -31.5l-63 27v385h385v-90z" />
    <glyph glyph-name="six.tnum" horiz-adv-x="600" 
d="M299 471q49 0 93 -18t77 -50.5t52 -77t19 -97.5t-19 -97t-52 -76t-77 -50t-93 -18q-50 0 -94 18t-76.5 50t-51.5 76t-19 97q0 45 13.5 84t38.5 70l231 353h117l-173 -265q4 0 7 0.5t7 0.5zM299 382q-30 0 -55.5 -11.5t-44 -31.5t-29.5 -48.5t-11 -62.5t11 -62t29.5 -48
t44 -31t55.5 -11q29 0 55 11t45 31t30 48t11 62t-11 62.5t-30 48.5t-45 31.5t-55 11.5z" />
    <glyph glyph-name="seven.tnum" horiz-adv-x="600" 
d="M564 729l-370 -729h-108l332 644h-351v91h497v-6z" />
    <glyph glyph-name="eight.tnum" horiz-adv-x="600" 
d="M300 748q43 0 81.5 -14.5t67 -41t45 -63t16.5 -79.5q0 -54 -25 -95.5t-66 -64.5q54 -26 88.5 -73.5t34.5 -108.5q0 -48 -19.5 -89t-52.5 -70t-77 -45.5t-93 -16.5q-50 0 -93.5 16.5t-76.5 45.5t-52 70t-19 89q0 61 33.5 109t87.5 72q-41 23 -65.5 65t-24.5 96
q0 43 16.5 79.5t45 63t67 41t81.5 14.5zM300 339q-29 0 -54.5 -10t-44.5 -28t-30 -42.5t-11 -52.5t11 -52t30 -41.5t44.5 -27.5t54.5 -10t55 10t45 27.5t30 41.5t11 52t-11 52.5t-30 42.5t-45 28t-55 10zM300 660q-24 0 -45.5 -8.5t-37.5 -24t-25 -36.5t-9 -45q0 -26 9 -48
t25 -37.5t37.5 -24.5t45.5 -9t45.5 9t37.5 24.5t25 37.5t9 48q0 24 -9 45t-25 36.5t-37.5 24t-45.5 8.5z" />
    <glyph glyph-name="nine.tnum" horiz-adv-x="600" 
d="M300 748q50 0 94 -18t76.5 -50t51.5 -76t19 -97q0 -45 -14 -84.5t-39 -70.5l-230 -352h-117l172 264h-13q-50 0 -93.5 18t-76.5 50.5t-52 77t-19 97.5t19 97t52 76t76.5 50t93.5 18zM300 659q-29 0 -55 -11t-45 -31t-30 -48t-11 -62t11 -62.5t30 -48.5t45 -31.5t55 -11.5
q30 0 55.5 11.5t44 31.5t29.5 48.5t11 62.5t-11 62t-29.5 48t-44 31t-55.5 11z" />
    <glyph glyph-name="zero.oldstyle" horiz-adv-x="590" 
d="M295 570q56 0 103 -22t81.5 -61t53.5 -92t19 -116t-19.5 -116t-53.5 -91.5t-81.5 -60t-102.5 -21.5q-56 0 -103.5 21.5t-82 60t-53.5 91.5t-19 116t19.5 116t54 92t81.5 61t103 22zM295 483q-35 0 -64 -15t-50 -42t-33 -64.5t-12 -82.5t12 -82t33 -63.5t50 -41.5t64 -15
q34 0 63 15t50 41.5t33 63.5t12 82t-12 82.5t-33 64.5t-50 42t-63 15z" />
    <glyph glyph-name="one.oldstyle" horiz-adv-x="374" 
d="M294 0h-99v389l-131 -81l-44 89l270 173h4v-570z" />
    <glyph glyph-name="two.oldstyle" horiz-adv-x="530" 
d="M266 570q47 0 86 -15t66.5 -41.5t43 -62t15.5 -77.5q0 -37 -8.5 -66.5t-23.5 -54t-35 -45.5t-43 -41l-89 -77h217v-90h-443v6l221 204q23 21 42 39t32.5 36t21 38.5t7.5 46.5q0 55 -32 82.5t-83 27.5q-40 0 -66.5 -18.5t-43.5 -56.5l-82 41q28 61 77 92.5t120 31.5z" />
    <glyph glyph-name="three.oldstyle" horiz-adv-x="524" 
d="M264 570q48 0 87.5 -15t68 -42t44.5 -64t16 -82q0 -60 -28 -96t-71 -55q56 -20 89 -63t33 -106q0 -48 -16.5 -88t-46.5 -68.5t-73 -44t-95 -15.5q-98 0 -154.5 46t-83.5 131l90 23q17 -51 51 -81.5t97 -30.5q59 0 95.5 35t36.5 95q0 28 -10.5 51t-29.5 40t-45.5 26.5
t-57.5 9.5h-80v78h82q23 0 44 7t37.5 20.5t26.5 34.5t10 50q0 54 -33.5 85t-84.5 31t-82.5 -27t-47.5 -75l-87 36q25 68 78 111t140 43z" />
    <glyph glyph-name="four.oldstyle" horiz-adv-x="557" 
d="M437 72h99v-87h-99v-134h-99v134h-331v4l425 581h5v-498zM176 71h163v223z" />
    <glyph glyph-name="five.oldstyle" horiz-adv-x="538" 
d="M463 472h-285v-210q18 9 42 16t55 7q51 0 94 -15t74 -44.5t48.5 -71.5t17.5 -96q0 -47 -16 -88t-46.5 -71.5t-73.5 -48t-97 -17.5q-94 0 -150 40.5t-85 114.5l85 39q17 -50 50.5 -78t93.5 -28q31 0 56.5 10.5t44 29.5t28.5 45t10 57q0 61 -38.5 100.5t-104.5 39.5
q-41 0 -71.5 -13t-53.5 -30l-63 26v373h385v-87z" />
    <glyph glyph-name="six.oldstyle" horiz-adv-x="547" 
d="M272 457q50 0 94 -18t77 -49.5t52 -74.5t19 -94t-19 -94t-52 -74t-77 -48.5t-94 -17.5t-93.5 17.5t-76 48.5t-51.5 74t-19 94q0 43 13 80.5t37 66.5l233 345h117l-173 -256h13zM272 370q-29 0 -54.5 -11t-44.5 -30.5t-29.5 -47t-10.5 -60.5t10.5 -60.5t29.5 -47t44.5 -30
t54.5 -10.5q30 0 55.5 10.5t45 30t30.5 47t11 60.5t-11 60.5t-30.5 47t-45 30.5t-55.5 11z" />
    <glyph glyph-name="seven.oldstyle" horiz-adv-x="538" 
d="M524 554l-370 -707h-108l330 624h-349v89h497v-6z" />
    <glyph glyph-name="eight.oldstyle" horiz-adv-x="547" 
d="M270 726q43 0 81.5 -14.5t67 -40t45 -60.5t16.5 -77q0 -52 -25 -92.5t-66 -63.5q54 -25 88.5 -71t34.5 -105q0 -47 -19.5 -86.5t-52.5 -68t-77 -44.5t-93 -16q-50 0 -93.5 16t-76.5 44.5t-52 68t-19 86.5q0 59 33.5 105.5t87.5 69.5q-41 23 -65.5 63.5t-24.5 93.5
q0 42 16.5 77t45 60.5t67 40t81.5 14.5zM270 329q-29 0 -54.5 -10t-44.5 -27t-30 -40.5t-11 -51.5q0 -27 11 -50.5t30 -40.5t44.5 -26.5t54.5 -9.5t55 9.5t45 26.5t30 40.5t11 50.5q0 28 -11 51.5t-30 40.5t-45 27t-55 10zM270 640q-24 0 -45.5 -8.5t-37.5 -23t-25 -34.5
t-9 -44q0 -25 9 -46.5t25 -37t37.5 -24t45.5 -8.5t45.5 8.5t37.5 24t25 37t9 46.5q0 24 -9 44t-25 34.5t-37.5 23t-45.5 8.5z" />
    <glyph glyph-name="nine.oldstyle" horiz-adv-x="547" 
d="M274 570q49 0 93 -17.5t76.5 -48.5t51.5 -74t19 -94q0 -74 -39 -130h1l-244 -362h-118l174 257h-14q-50 0 -94 17.5t-77 49t-52 74.5t-19 94t19 94t52 74t77 48.5t94 17.5zM274 484q-30 0 -55.5 -11t-44.5 -30.5t-30 -46.5t-11 -60t11 -60.5t30 -47t44.5 -30.5t55.5 -11
q29 0 54.5 11t44.5 30.5t30 47t11 60.5t-11 60t-30 46.5t-44.5 30.5t-54.5 11z" />
    <glyph glyph-name="a.superior" horiz-adv-x="430" 
d="M184 748q44 0 71 -15t42 -33l3 41h73v-353h-73l-3 41q-15 -18 -42 -33t-71 -15q-35 0 -64 13.5t-50 38t-32.5 58t-11.5 73.5t11.5 73.5t32.5 58t50 38.5t64 14zM204 677q-43 0 -70 -31t-27 -82t27 -82t70 -31q32 0 53 15.5t35 36.5v123q-14 21 -35 36t-53 15z" />
    <glyph glyph-name="b.superior" horiz-adv-x="430" 
d="M138 706q15 17 41 29.5t67 12.5q35 0 64 -14t50 -38.5t32.5 -58t11.5 -73.5t-11.5 -73.5t-32.5 -58t-50 -38t-64 -13.5q-44 0 -71 15t-42 33l-3 -41h-72v532h80v-214zM226 677q-32 0 -53 -15t-35 -36v-123q14 -21 35 -36.5t53 -15.5q43 0 70 31t27 82t-27 82t-70 31z" />
    <glyph glyph-name="c.superior" horiz-adv-x="370" 
d="M206 748q50 0 86.5 -21t61.5 -58l-59 -44q-14 21 -35.5 37t-53.5 16q-49 0 -74 -32.5t-25 -81.5q0 -48 25.5 -80.5t74.5 -32.5q32 0 54 15.5t36 37.5l59 -44q-25 -37 -62 -58t-87 -21q-41 0 -74.5 13.5t-57 38t-36.5 58t-13 73.5t13 73.5t36.5 58t56.5 38.5t74 14z" />
    <glyph glyph-name="d.superior" horiz-adv-x="430" 
d="M373 388h-73l-3 41q-15 -18 -42 -33t-71 -15q-35 0 -64 13.5t-50 38t-32.5 58t-11.5 73.5t11.5 73.5t32.5 58t50 38.5t64 14q41 0 67 -12.5t41 -29.5v214h81v-532zM204 677q-43 0 -70 -31t-27 -82t27 -82t70 -31q32 0 53 15.5t35 36.5v123q-14 21 -35 36t-53 15z" />
    <glyph glyph-name="e.superior" horiz-adv-x="392" 
d="M201 748q40 0 71 -14.5t51 -39t30.5 -57.5t10.5 -70v-28h-257q3 -43 28 -66.5t73 -23.5q32 0 55 13t37 30l55 -47q-27 -32 -63.5 -48t-84.5 -16q-42 0 -75.5 13.5t-57 38t-36 58t-12.5 73.5t12.5 73.5t35.5 58t55.5 38.5t71.5 14zM198 682q-39 0 -63.5 -23.5t-27.5 -58.5
h178q-3 35 -25.5 58.5t-61.5 23.5z" />
    <glyph glyph-name="f.superior" horiz-adv-x="271" 
d="M210 920q49 0 79 -24l-30 -64q-8 8 -18.5 13t-25.5 5q-25 0 -38.5 -17t-13.5 -44v-48h89v-69h-89v-284h-80v284h-64v69h64v44q0 59 34 97t93 38z" />
    <glyph glyph-name="g.superior" horiz-adv-x="431" 
d="M184 748q44 0 71 -14.5t42 -32.5l4 40h72v-342q0 -84 -50 -131.5t-135 -47.5q-57 0 -96.5 20.5t-68.5 54.5l53 52q20 -25 47 -41t65 -16q48 0 76 29.5t28 77.5v33q-15 -16 -41 -28.5t-67 -12.5q-35 0 -64 13.5t-50 37.5t-32.5 57t-11.5 72t11.5 72t32.5 56.5t50 37
t64 13.5zM204 680q-43 0 -70 -30t-27 -81t27 -81t70 -30q32 0 53 15t35 35v121q-14 20 -35 35.5t-53 15.5z" />
    <glyph glyph-name="h.superior" horiz-adv-x="423" 
d="M138 702q14 17 40 31.5t63 14.5q65 0 99 -42t34 -112v-206h-81v202q0 37 -19 59.5t-53 22.5q-29 0 -48.5 -14t-34.5 -35v-235h-80v532h80v-218z" />
    <glyph glyph-name="i.superior" horiz-adv-x="195" 
d="M137 388h-79v353h79v-353zM98 904q21 0 35 -14.5t14 -36.5t-14 -36t-35 -14q-23 0 -36.5 14t-13.5 36t13.5 36.5t36.5 14.5z" />
    <glyph glyph-name="j.superior" horiz-adv-x="205" 
d="M148 355q0 -66 -44.5 -100.5t-113.5 -34.5v70q35 0 56.5 16.5t21.5 42.5v392h80v-386zM108 904q22 0 36 -14.5t14 -36.5t-14 -36t-36 -14t-36 14t-14 36t14 36.5t36 14.5z" />
    <glyph glyph-name="k.superior" horiz-adv-x="399" 
d="M138 536l139 205h98l-108 -151l122 -202h-93l-79 134l-96 -134h-63v532h80v-384z" />
    <glyph glyph-name="l.superior" horiz-adv-x="195" 
d="M138 388h-80v532h80v-532z" />
    <glyph glyph-name="m.superior" horiz-adv-x="647" 
d="M241 748q37 0 64 -16t43 -45q20 27 50 44t72 17q62 0 95 -42t33 -112v-206h-80v202q0 37 -18.5 59.5t-50.5 22.5q-28 0 -47.5 -13.5t-34.5 -35.5q1 -5 1 -10.5v-10.5v-214h-80v202q0 37 -18.5 59.5t-50.5 22.5q-28 0 -47.5 -13.5t-33.5 -34.5v-236h-80v353h72l3 -40
q15 19 41.5 33t66.5 14z" />
    <glyph glyph-name="o.superior" horiz-adv-x="417" 
d="M209 748q39 0 72.5 -14t57.5 -38.5t38 -58.5t14 -73q0 -40 -14 -73.5t-38 -58t-57.5 -38t-72.5 -13.5q-40 0 -73.5 13.5t-58 38t-38 58t-13.5 73.5q0 39 13.5 73t38 58.5t58 38.5t73.5 14zM209 677q-45 0 -73.5 -32t-28.5 -81t28.5 -81t73.5 -32q44 0 72.5 32t28.5 81
t-28.5 81t-72.5 32z" />
    <glyph glyph-name="p.superior" horiz-adv-x="430" 
d="M246 748q35 0 64 -13.5t50 -38t32.5 -58t11.5 -73.5t-11.5 -73.5t-32.5 -58t-50 -38.5t-64 -14q-41 0 -67 12.5t-41 29.5v-196h-80v514h72l3 -41q15 18 42 33t71 15zM226 678q-32 0 -53 -15.5t-35 -36.5v-123q14 -21 35 -36t53 -15q43 0 70 31t27 82t-27 82t-70 31z" />
    <glyph glyph-name="q.superior" horiz-adv-x="430" 
d="M184 748q44 0 71 -15t42 -33l3 41h73v-514h-81v196q-15 -17 -41 -29.5t-67 -12.5q-35 0 -64 14t-50 38.5t-32.5 58t-11.5 73.5t11.5 73.5t32.5 58t50 38t64 13.5zM204 678q-43 0 -70 -31t-27 -82t27 -82t70 -31q32 0 53 15t35 36v123q-14 21 -35 36.5t-53 15.5z" />
    <glyph glyph-name="r.superior" horiz-adv-x="253" 
d="M238 668h-8q-32 0 -53.5 -14t-38.5 -38v-228h-80v353h71l5 -49q14 22 39.5 39t64.5 17v-80z" />
    <glyph glyph-name="s.superior" horiz-adv-x="335" 
d="M177 748q36 0 68.5 -11t53.5 -28l-35 -63q-16 14 -37.5 22.5t-49.5 8.5q-27 0 -42.5 -9.5t-15.5 -29.5q0 -17 16.5 -24t59.5 -17q58 -14 84 -38.5t26 -64.5q0 -51 -39 -82t-106 -31q-40 0 -76 12t-59 31l35 63q19 -16 44 -26t57 -10q29 0 46.5 9.5t17.5 32.5q0 19 -16 26
t-57 17q-59 14 -86 37.5t-27 63.5q0 51 37 81t101 30z" />
    <glyph glyph-name="t.superior" horiz-adv-x="293" 
d="M158 741h107v-69h-107v-161q0 -28 15.5 -43t41.5 -15q17 0 28.5 3t19.5 8l21 -63q-12 -8 -31 -14t-45 -6q-60 0 -95 33.5t-35 96.5v161h-67v69h67v118h80v-118z" />
    <glyph glyph-name="u.superior" horiz-adv-x="418" 
d="M361 388h-73l-3 38q-16 -18 -42 -31.5t-67 -13.5q-62 0 -94.5 41t-32.5 110v209h80v-204q0 -36 18 -58t50 -22q31 0 50 13t33 34v237h81v-353z" />
    <glyph glyph-name="v.superior" horiz-adv-x="397" 
d="M200 381h-3l-185 360h89l98 -198l97 198h90z" />
    <glyph glyph-name="w.superior" horiz-adv-x="548" 
d="M375 381h-3l-98 196l-99 -196h-2l-161 360h89l79 -190l93 190h2l92 -190l79 190h90z" />
    <glyph glyph-name="x.superior" horiz-adv-x="368" 
d="M238 566l118 -178h-95l-78 120l-78 -120h-94l117 178l-111 175h93l73 -117l74 117h93z" />
    <glyph glyph-name="y.superior" horiz-adv-x="405" 
d="M126 227h-91l125 231l-145 283h90l97 -198l98 198h89z" />
    <glyph glyph-name="z.superior" horiz-adv-x="334" 
d="M312 738l-165 -282h164v-68h-290v3l164 281h-154v69h281v-3z" />
    <glyph glyph-name="glyph495" horiz-adv-x="670" 
d="M335 779q65 0 121 -24t96.5 -66t63.5 -99t23 -124q0 -68 -23 -125t-63.5 -98.5t-96.5 -65t-121 -23.5q-66 0 -121.5 23.5t-96 65t-63 98.5t-22.5 125q0 67 22.5 124t63 99t96 66t121.5 24zM335 717q-52 0 -95.5 -19.5t-75 -53t-49 -79.5t-17.5 -99q0 -54 17.5 -100
t49 -79.5t75 -52.5t95.5 -19q51 0 94.5 19t75 52.5t49.5 79.5t18 100q0 53 -18 99t-49.5 79.5t-75 53t-94.5 19.5z" />
    <glyph glyph-name="zero.zero" horiz-adv-x="589" 
d="M295 748q61 0 109 -27t81 -76.5t50 -119.5t17 -157t-17 -157.5t-50 -120t-81 -76.5t-109 -27q-62 0 -110 27t-81 76.5t-50 120t-17 157.5t17 157t50 119.5t81 76.5t110 27zM295 663q-40 0 -69.5 -21t-49 -59.5t-29 -93t-9.5 -121.5q0 -50 4.5 -92.5t15.5 -77.5l230 421
q-38 44 -93 44zM451 368q0 98 -21 167l-229 -421q37 -43 94 -43q39 0 68.5 21t49 60t29 93.5t9.5 122.5z" />
    </font>
</defs>
</svg>
