<?xml version="1.0" standalone="no"?>
<!DOCTYPE svg PUBLIC "-//W3C//DTD SVG 1.1//EN" "http://www.w3.org/Graphics/SVG/1.1/DTD/svg11.dtd" >
<svg>
<metadata>
Created by FontForge 20120731 at Sat Jun 29 14:43:45 2019
 By www
Copyright (c) 2013 by Nico Inosanto. All rights reserved.
</metadata>
<defs>
<font id="RadikalW03-Bold" horiz-adv-x="592" >
  <font-face 
    font-family="RadikalW03-Bold"
    font-weight="700"
    font-stretch="normal"
    units-per-em="1000"
    panose-1="1 0 0 0 0 0 0 0 0 0"
    ascent="800"
    descent="-200"
    x-height="507"
    cap-height="735"
    bbox="-179 -329 1284 1097"
    underline-thickness="50"
    underline-position="-75"
    unicode-range="U+0020-FB01"
  />
<missing-glyph horiz-adv-x="589" 
d="M530 700v-700h-472v700h472zM149 635l144 -229l144 229h-288zM329 346l137 -215v430zM152 65h281l-140 221zM123 136l132 210l-132 210v-420z" />
    <glyph glyph-name="uniFB01" unicode="fi" horiz-adv-x="669" 
d="M306 760q30 0 53 -5t40 -13l-38 -123q-8 6 -19.5 9.5t-28.5 3.5q-29 0 -45.5 -19.5t-16.5 -53.5v-52h114v-124h-114v-383h-147v383h-88v124h88v47q0 45 14 82.5t40.5 65t63.5 43t84 15.5zM600 0h-147v507h147v-507zM527 753q38 0 62 -24t24 -62t-24 -62t-62 -24t-62 24
t-24 62t24 62t62 24z" />
    <glyph glyph-name="f_j.liga" unicode="fj" horiz-adv-x="669" 
d="M306 760q30 0 53 -5t40 -13l-38 -123q-8 6 -19.5 9.5t-28.5 3.5q-29 0 -45.5 -19.5t-16.5 -53.5v-52h114v-124h-114v-383h-147v383h-88v124h88v47q0 45 14 82.5t40.5 65t63.5 43t84 15.5zM600 -28q0 -45 -16 -84t-44.5 -67.5t-68.5 -44.5t-87 -16q-108 0 -177 72l95 98
q13 -15 33 -28.5t46 -13.5q33 0 52.5 19.5t19.5 53.5v546h147v-535zM527 753q38 0 62 -24t24 -62t-24 -62t-62 -24t-62 24t-24 62t24 62t62 24z" />
    <glyph glyph-name=".notdef" horiz-adv-x="589" 
d="M530 700v-700h-472v700h472zM149 635l144 -229l144 229h-288zM329 346l137 -215v430zM152 65h281l-140 221zM123 136l132 210l-132 210v-420z" />
    <glyph glyph-name="glyph1" horiz-adv-x="0" 
 />
    <glyph glyph-name="glyph2" horiz-adv-x="250" 
 />
    <glyph glyph-name="space" unicode=" " horiz-adv-x="227" 
 />
    <glyph glyph-name="exclam" unicode="!" horiz-adv-x="294" 
d="M220 226h-147v509h147v-509zM147 159q38 0 62.5 -24t24.5 -62t-24.5 -62t-62.5 -24t-62 24t-24 62t24 62t62 24z" />
    <glyph glyph-name="quotedbl" unicode="&#x22;" horiz-adv-x="376" 
d="M184 731l-64 -276h-55l-15 300zM371 731l-64 -276h-55l-15 300z" />
    <glyph glyph-name="numbersign" unicode="#" horiz-adv-x="707" 
d="M585 555h104v-118h-124l-26 -141h103v-119h-123l-31 -177h-147l31 177h-119l-30 -177h-149l33 177h-106v119h126l26 141h-105v118h124l32 180h147l-32 -180h119l32 180h148zM298 437l-24 -141h119l25 141h-120z" />
    <glyph glyph-name="dollar" unicode="$" horiz-adv-x="596" 
d="M368 743q55 -8 101.5 -27t81.5 -45l-79 -126q-34 27 -77 45.5t-102 18.5q-49 0 -77 -19.5t-28 -60.5q0 -16 6 -28t21.5 -22t42.5 -18t68 -16q71 -15 119 -35.5t77 -48t41.5 -62t12.5 -76.5q0 -91 -54.5 -152t-153.5 -78v-122h-121v119q-69 7 -128.5 30.5t-105.5 64.5
l83 127q37 -39 93.5 -62.5t113.5 -23.5q58 0 89.5 21t31.5 62q0 16 -7 29t-23.5 23.5t-43.5 19t-68 16.5q-71 15 -118.5 37t-76 50.5t-40.5 62.5t-12 75q0 44 14.5 82t42 67.5t67 48.5t88.5 25v124h121v-126z" />
    <glyph glyph-name="percent" unicode="%" horiz-adv-x="900" 
d="M284 0h-140l473 735h140zM211 747q40 0 73.5 -14t58.5 -39.5t39 -60t14 -74.5q0 -41 -14 -75t-39 -58.5t-58.5 -38.5t-73.5 -14q-41 0 -75 14t-59 38.5t-39 58.5t-14 75q0 40 14 74.5t39 60t59 39.5t75 14zM211 643q-34 0 -55 -23.5t-21 -60.5q0 -35 21 -58.5t55 -23.5
q32 0 53.5 23.5t21.5 58.5q0 37 -21.5 60.5t-53.5 23.5zM690 361q40 0 74 -14t59 -39.5t39 -60t14 -74.5q0 -41 -14 -75t-39 -58.5t-59 -38.5t-74 -14q-41 0 -75 14t-58.5 38.5t-38.5 58.5t-14 75q0 40 14 74.5t38.5 60t58.5 39.5t75 14zM690 257q-34 0 -55 -23.5t-21 -60.5
q0 -35 21 -58.5t55 -23.5q32 0 54 23.5t22 58.5q0 37 -22 60.5t-54 23.5z" />
    <glyph glyph-name="ampersand" unicode="&#x26;" horiz-adv-x="709" 
d="M293 748q46 0 83.5 -13t63.5 -36t40.5 -55t14.5 -70q0 -35 -12 -62t-31 -48t-42.5 -37.5t-47.5 -32.5l109 -122l72 94h168l-145 -198l151 -168h-187l-57 64q-41 -34 -91 -54t-116 -20q-48 0 -92 13.5t-77 40t-53 64.5t-20 88q0 37 9.5 66t28.5 53t46.5 45.5t62.5 43.5
q-32 37 -56 77.5t-24 91.5q0 38 14.5 70t40.5 55.5t63.5 36.5t83.5 13zM275 117q33 0 60 13.5t49 34.5l-135 154q-36 -24 -55.5 -48.5t-19.5 -62.5q0 -43 28 -67t73 -24zM229 566q0 -26 16 -47t39 -44q35 22 55 41t20 51q0 29 -17.5 45.5t-46.5 16.5t-47.5 -16.5
t-18.5 -46.5z" />
    <glyph glyph-name="quotesingle" unicode="'" horiz-adv-x="188" 
d="M184 731l-64 -276h-55l-15 300z" />
    <glyph glyph-name="parenleft" unicode="(" horiz-adv-x="322" 
d="M305 632q-24 -30 -46.5 -64t-40 -75t-28 -91t-10.5 -113t10.5 -113t28 -91t40 -75t46.5 -64l-112 -78q-27 34 -54 75.5t-48.5 93.5t-35 114.5t-13.5 137.5t13.5 137.5t35 114.5t48.5 93.5t54 75.5z" />
    <glyph glyph-name="parenright" unicode=")" horiz-adv-x="322" 
d="M129 710q27 -34 54 -75.5t48.5 -93.5t35 -114.5t13.5 -137.5t-13.5 -137.5t-35 -114.5t-48.5 -93.5t-54 -75.5l-112 78q24 30 47 64t40 75t27.5 91t10.5 113t-10.5 113t-27.5 91t-40 75t-47 64l112 78v0z" />
    <glyph glyph-name="asterisk" unicode="*" horiz-adv-x="432" 
d="M261 611l115 45l32 -97l-120 -32l77 -94l-82 -60l-66 96l-67 -96l-82 60l77 94l-120 32l32 97l115 -45l-7 123h103z" />
    <glyph glyph-name="plus" unicode="+" horiz-adv-x="512" 
d="M322 417h154v-134h-154v-154h-134v154h-152v134h152v153h134v-153z" />
    <glyph glyph-name="comma" unicode="," horiz-adv-x="211" 
d="M82 169q40 0 65.5 -26.5t25.5 -64.5q0 -17 -5 -31t-13 -25l-104 -177h-4v317q9 3 17 5t18 2z" />
    <glyph glyph-name="hyphen" unicode="-" horiz-adv-x="431" 
d="M393 191h-356v135h356v-135z" />
    <glyph glyph-name="period" unicode="." horiz-adv-x="254" 
d="M127 171q39 0 65 -25t26 -65t-26 -65.5t-65 -25.5q-40 0 -65.5 25.5t-25.5 65.5q0 39 25.5 64.5t65.5 25.5z" />
    <glyph glyph-name="slash" unicode="/" horiz-adv-x="522" 
d="M154 0h-149l364 735h148z" />
    <glyph glyph-name="zero" unicode="0" horiz-adv-x="595" 
d="M298 748q62 0 111.5 -27t83.5 -76.5t52 -119.5t18 -157t-18 -157.5t-52 -120t-83.5 -76.5t-111.5 -27q-63 0 -112 27t-83.5 76.5t-52.5 120t-18 157.5t18 157t52.5 119.5t83.5 76.5t112 27zM298 618q-30 0 -52 -18t-36.5 -51t-21 -79t-6.5 -102q0 -57 6.5 -103t21 -79
t36.5 -51t52 -18t51.5 18t36 51t21 79t6.5 103q0 56 -6.5 102t-21 79t-36 51t-51.5 18z" />
    <glyph glyph-name="one" unicode="1" horiz-adv-x="397" 
d="M325 0h-147v502l-108 -57l-60 135l311 168h4v-748z" />
    <glyph glyph-name="two" unicode="2" horiz-adv-x="534" 
d="M257 748q55 0 100 -17.5t76.5 -48t49 -73t17.5 -93.5q0 -62 -21.5 -110.5t-59.5 -99.5l-128 -174h215v-132h-473v6l262 375q15 22 25.5 39.5t17 33.5t9.5 31.5t3 34.5q0 45 -25.5 70.5t-67.5 25.5q-44 0 -68.5 -27t-33.5 -82l-134 31q20 106 79.5 158t156.5 52z" />
    <glyph glyph-name="three" unicode="3" horiz-adv-x="524" 
d="M259 748q53 0 96.5 -17t74 -47t47.5 -70.5t17 -88.5q0 -56 -24 -92t-61 -57q45 -21 72.5 -61t27.5 -99q0 -50 -17 -92t-49 -72.5t-77 -47.5t-101 -17q-199 0 -246 206l133 32q11 -51 37.5 -78.5t74.5 -27.5q44 0 70.5 27t26.5 73q0 44 -28.5 71.5t-73.5 27.5h-77v117h78
q35 1 61 24t26 66q0 42 -25.5 66.5t-63.5 24.5q-76 0 -97 -90l-128 54q24 78 81 123t145 45z" />
    <glyph glyph-name="four" unicode="4" horiz-adv-x="579" 
d="M473 220h83v-112h-83v-108h-147v108h-328v4l471 633h4v-525zM206 217h131v178z" />
    <glyph glyph-name="five" unicode="5" horiz-adv-x="547" 
d="M480 603h-264v-151q12 5 27.5 9t36.5 4q51 0 95.5 -14.5t77.5 -44.5t52 -75.5t19 -107.5q0 -51 -17 -94.5t-49 -75t-77.5 -49t-102.5 -17.5q-93 0 -155.5 40.5t-90.5 124.5l125 60q10 -47 38.5 -70t72.5 -23q47 0 77 30.5t30 80.5t-30 80t-78 30q-35 0 -59.5 -11.5
t-39.5 -25.5l-100 45v387h412v-132z" />
    <glyph glyph-name="six" unicode="6" horiz-adv-x="562" 
d="M303 481q48 -4 90.5 -24t73.5 -52.5t49 -76t18 -94.5q0 -54 -20 -99.5t-54.5 -78.5t-81 -51t-98.5 -18t-97.5 18t-80 51t-54.5 78.5t-20 99.5q0 44 13 81.5t36 68.5l220 351h166zM280 352q-44 0 -73 -32t-29 -86t29 -85.5t73 -31.5q45 0 74.5 31.5t29.5 85.5t-29.5 86
t-74.5 32z" />
    <glyph glyph-name="seven" unicode="7" horiz-adv-x="548" 
d="M545 729l-354 -729h-159l295 601h-303v134h521v-6z" />
    <glyph glyph-name="eight" unicode="8" horiz-adv-x="562" 
d="M279 748q46 0 87.5 -15.5t72.5 -43.5t49 -66t18 -84q0 -49 -21.5 -87t-56.5 -64q48 -28 76.5 -72.5t28.5 -98.5q0 -51 -20 -93.5t-54.5 -72.5t-81 -47t-98.5 -17t-97.5 17t-80 47t-54.5 72.5t-20 93.5q0 54 27.5 98.5t74.5 71.5q-35 26 -55.5 64t-20.5 88q0 46 18 84
t48.5 66t71.5 43.5t88 15.5zM279 318q-44 0 -73 -29t-29 -74t29 -73.5t73 -28.5q45 0 74.5 28.5t29.5 73.5t-29.5 74t-74.5 29zM279 623q-38 0 -64 -26t-26 -65q0 -41 26 -67t64 -26t64 26t26 67q0 39 -26 65t-64 26z" />
    <glyph glyph-name="nine" unicode="9" horiz-adv-x="562" 
d="M282 748q52 0 97.5 -18t80 -51t54.5 -78.5t20 -99.5q0 -44 -13.5 -81.5t-36.5 -68.5l-219 -351h-166l160 254q-48 4 -90.5 24t-73.5 52.5t-49 76t-18 94.5q0 54 20 99.5t54.5 78.5t81 51t98.5 18zM282 618q-45 0 -74.5 -31.5t-29.5 -85.5t29.5 -86t74.5 -32q44 0 73 32
t29 86t-29 85.5t-73 31.5z" />
    <glyph glyph-name="colon" unicode=":" horiz-adv-x="243" 
d="M122 161q37 0 61 -24t24 -62q0 -37 -24 -61t-61 -24q-38 0 -62 24t-24 61q0 38 24 62t62 24zM122 517q37 0 61 -24t24 -62q0 -37 -24 -61t-61 -24q-38 0 -62 24t-24 61q0 38 24 62t62 24z" />
    <glyph glyph-name="semicolon" unicode=";" horiz-adv-x="243" 
d="M94 161q40 0 65.5 -26t25.5 -65q0 -17 -5.5 -31t-13.5 -25l-103 -176h-4v316q15 7 35 7zM122 517q37 0 61 -24t24 -62q0 -37 -24 -61t-61 -24q-38 0 -62 24t-24 61q0 38 24 62t62 24z" />
    <glyph glyph-name="less" unicode="&#x3c;" horiz-adv-x="385" 
d="M195 346l173 -192h-182l-169 190v4l169 190h182z" />
    <glyph glyph-name="equal" unicode="=" horiz-adv-x="512" 
d="M476 149h-440v134h440v-134zM476 413h-440v135h440v-135z" />
    <glyph glyph-name="greater" unicode="&#x3e;" horiz-adv-x="385" 
d="M368 348v-4l-169 -190h-182l173 192l-173 192h182z" />
    <glyph glyph-name="question" unicode="?" horiz-adv-x="525" 
d="M256 748q53 0 96.5 -16.5t75 -45t48.5 -66.5t17 -82t-12.5 -73.5t-30.5 -51t-40 -37.5t-40 -33t-30.5 -38.5t-12.5 -52.5v-26h-147v46q0 41 12 69t29.5 48.5t38.5 36t38.5 31t29.5 34t12 45.5q0 39 -25 59.5t-61 20.5q-39 0 -62.5 -23t-28.5 -61l-145 24
q19 91 78.5 141.5t159.5 50.5zM254 159q38 0 62.5 -24t24.5 -62t-24.5 -62t-62.5 -24t-62 24t-24 62t24 62t62 24z" />
    <glyph glyph-name="at" unicode="@" horiz-adv-x="878" 
d="M438 648q92 0 168 -29t130.5 -81.5t84.5 -126t30 -161.5q0 -50 -12.5 -92t-36 -72t-57.5 -47t-77 -17q-49 0 -80.5 19t-43.5 44l-2 4q-20 -26 -55.5 -46.5t-81.5 -20.5q-42 0 -76 16.5t-59 45.5t-38.5 69t-13.5 87q0 48 13.5 88t38.5 69t59 45.5t76 16.5q46 0 76.5 -15.5
t47.5 -38.5l6 46h111v-295q0 -19 8 -31t30 -12q35 0 53 37t18 100q0 68 -22 124.5t-63 97.5t-100 64t-132 23q-70 0 -128 -24t-99.5 -66t-64.5 -100.5t-23 -127.5t22.5 -127t63 -100t97 -65.5t124.5 -23.5q69 0 129 24l24 -84q-70 -29 -153 -29q-88 0 -162 30t-127.5 84
t-83.5 128t-30 163q0 88 30.5 162.5t85 129t130 85t165.5 30.5zM436 353q-42 0 -68 -30t-26 -83q0 -52 26 -82t68 -30q32 0 52.5 15t34.5 36v123q-14 20 -34.5 35.5t-52.5 15.5z" />
    <glyph glyph-name="A" unicode="A" horiz-adv-x="724" 
d="M719 0h-168l-48 114h-282l-48 -114h-168l355 748h4zM269 233h186l-93 220z" />
    <glyph glyph-name="B" unicode="B" horiz-adv-x="676" 
d="M357 735q110 0 171.5 -52.5t61.5 -146.5q0 -54 -22.5 -89.5t-48.5 -52.5q28 -10 52 -25t41.5 -36.5t27.5 -51t10 -67.5q0 -51 -19 -91t-52 -67.5t-77.5 -41.5t-95.5 -14h-333v735h284zM225 314v-175h162q50 0 79 22t29 65t-29 65.5t-83 22.5h-158zM225 596v-161h116
q44 0 70 22t26 59q0 38 -26 59t-74 21h-112z" />
    <glyph glyph-name="C" unicode="C" horiz-adv-x="682" 
d="M407 748q87 0 150 -27.5t116 -82.5l-96 -111q-29 35 -71 58.5t-99 23.5q-51 0 -92 -18t-70 -50t-45 -76.5t-16 -96.5q0 -53 16 -97t45 -76.5t70 -50.5t92 -18q57 0 100 24.5t72 59.5l95 -111q-55 -60 -120.5 -86t-146.5 -26q-83 0 -152 29t-119 80t-78 120.5t-28 151.5
q0 81 28 150.5t78 120.5t119 80t152 29z" />
    <glyph glyph-name="D" unicode="D" horiz-adv-x="738" 
d="M307 735q94 0 168.5 -24.5t126.5 -72t79.5 -115.5t27.5 -155t-27 -155.5t-79 -115.5t-126.5 -72t-169.5 -25h-234v735h234zM226 595v-456h76q125 0 188.5 59.5t63.5 168.5t-63.5 168.5t-188.5 59.5h-76z" />
    <glyph glyph-name="E" unicode="E" 
d="M548 596h-322v-159h279v-129h-279v-169h330v-139h-483v735h475v-139z" />
    <glyph glyph-name="F" unicode="F" horiz-adv-x="555" 
d="M533 596h-307v-169h255v-130h-255v-297h-153v735h460v-139z" />
    <glyph glyph-name="G" unicode="G" horiz-adv-x="749" 
d="M407 748q87 0 150 -27.5t116 -82.5l-96 -111q-29 35 -71 58.5t-99 23.5q-51 0 -92 -18t-70 -50t-45 -76.5t-16 -96.5q0 -53 16.5 -97t47 -76.5t73.5 -50.5t96 -18q36 0 66 10t56 27v119h-159v131h311v-325q-107 -101 -274 -101q-85 0 -156 29t-122.5 80t-80 120.5
t-28.5 151.5q0 81 28 150.5t78 120.5t119 80t152 29z" />
    <glyph glyph-name="H" unicode="H" horiz-adv-x="750" 
d="M676 0h-152v307h-298v-307h-153v735h153v-289h298v289h152v-735z" />
    <glyph glyph-name="I" unicode="I" horiz-adv-x="299" 
d="M226 0h-153v735h153v-735z" />
    <glyph glyph-name="J" unicode="J" horiz-adv-x="568" 
d="M505 220q0 -52 -18 -95t-50 -73.5t-76 -47.5t-97 -17q-48 0 -93 16.5t-79 49t-54.5 81t-20.5 113.5h148q0 -59 24 -90t70 -31q45 0 69.5 27.5t24.5 74.5v507h152v-515z" />
    <glyph glyph-name="K" unicode="K" horiz-adv-x="706" 
d="M432 382l267 -382h-183l-170 246l-157 -246h-116v735h153v-429l244 429h179z" />
    <glyph glyph-name="L" unicode="L" horiz-adv-x="546" 
d="M226 134h313v-134h-466v735h153v-601z" />
    <glyph glyph-name="M" unicode="M" horiz-adv-x="888" 
d="M814 0h-152v309l-214 -319h-8l-214 319v-309h-153v748h4l367 -518l366 518h4v-748z" />
    <glyph glyph-name="N" unicode="N" horiz-adv-x="737" 
d="M664 -13h-4l-434 423v-410h-153v748h4l434 -423v410h153v-748z" />
    <glyph glyph-name="O" unicode="O" horiz-adv-x="814" 
d="M407 748q81 0 150 -28.5t120 -79.5t79.5 -121t28.5 -153q0 -82 -28.5 -151.5t-79.5 -120t-120 -79t-150 -28.5t-150.5 28.5t-119.5 79t-78.5 120t-28.5 151.5q0 83 28.5 153t78.5 121t119.5 79.5t150.5 28.5zM407 609q-49 0 -90 -18t-70.5 -50.5t-46 -77t-16.5 -97.5
t16.5 -97t46 -75.5t70.5 -49.5t90 -18t90 18t70.5 49.5t46 75.5t16.5 97t-16.5 97.5t-46 77t-70.5 50.5t-90 18z" />
    <glyph glyph-name="P" unicode="P" horiz-adv-x="650" 
d="M367 735q52 0 99 -16t82.5 -47t56 -76.5t20.5 -103.5q0 -59 -20.5 -104t-55.5 -76t-82 -47t-100 -16h-141v-249h-153v735h294zM226 603v-222h126q54 0 86.5 27.5t32.5 83.5q0 54 -32.5 82.5t-86.5 28.5h-126z" />
    <glyph glyph-name="Q" unicode="Q" horiz-adv-x="814" 
d="M407 748q81 0 150 -28.5t120 -79.5t79.5 -121t28.5 -153q0 -78 -26 -144.5t-72 -116.5l156 -180h-184l-85 97q-38 -17 -79.5 -26t-87.5 -9q-81 0 -150.5 28.5t-119.5 79t-78.5 120t-28.5 151.5q0 83 28.5 153t78.5 121t119.5 79.5t150.5 28.5zM407 609q-49 0 -90 -18
t-70.5 -50.5t-46 -77t-16.5 -97.5t16.5 -97t46 -75.5t70.5 -49.5t90 -18q38 0 68 10l-97 112l107 90l103 -119q20 30 31 67t11 80q0 53 -16.5 97.5t-46 77t-70.5 50.5t-90 18z" />
    <glyph glyph-name="R" unicode="R" horiz-adv-x="664" 
d="M361 735q53 0 100.5 -16t83 -46t56.5 -74.5t21 -101.5q0 -78 -37.5 -131.5t-97.5 -80.5l171 -285h-178l-154 259h-101v-259h-152v735h288zM225 603v-212h122q54 0 87 27t33 79q0 51 -33 78.5t-87 27.5h-122z" />
    <glyph glyph-name="S" unicode="S" horiz-adv-x="602" 
d="M297 748q79 0 145 -21t112 -56l-79 -126q-34 27 -77 45.5t-102 18.5q-49 0 -77 -19.5t-28 -60.5q0 -16 6 -28t21.5 -22t42.5 -18t68 -16q71 -15 119 -35.5t77 -48t41.5 -62t12.5 -76.5q0 -53 -19 -96.5t-55 -74.5t-87.5 -48t-116.5 -17q-85 0 -157.5 25t-127.5 73l83 127
q37 -39 93.5 -62.5t113.5 -23.5q58 0 89.5 21t31.5 62q0 16 -7 29t-23.5 23.5t-43.5 19t-68 16.5q-71 15 -118.5 37t-76 50.5t-40.5 62.5t-12 75q0 49 18 90.5t52 71.5t82 47t107 17z" />
    <glyph glyph-name="T" unicode="T" horiz-adv-x="662" 
d="M646 601h-239v-601h-152v601h-238v134h629v-134z" />
    <glyph glyph-name="U" unicode="U" horiz-adv-x="694" 
d="M630 264q0 -63 -18 -114t-54 -87t-89 -56t-122 -20t-122 20t-89 56t-54 87t-18 114v471h153v-461q0 -66 32 -107t98 -41q65 0 98 41t33 107v461h152v-471z" />
    <glyph glyph-name="V" unicode="V" horiz-adv-x="720" 
d="M362 -11h-4l-351 746h168l185 -432l186 432h168z" />
    <glyph glyph-name="W" unicode="W" horiz-adv-x="962" 
d="M656 -11h-4l-171 403l-171 -403h-4l-299 746h168l143 -394l161 394h4l161 -394l143 394h168z" />
    <glyph glyph-name="X" unicode="X" horiz-adv-x="697" 
d="M456 373l230 -373h-175l-163 262l-162 -262h-175l230 373l-220 362h176l151 -250l152 250h176z" />
    <glyph glyph-name="Y" unicode="Y" horiz-adv-x="696" 
d="M425 301v-301h-152v298l-269 437h177l167 -284l167 284h177z" />
    <glyph glyph-name="Z" unicode="Z" horiz-adv-x="594" 
d="M559 731l-308 -598h319v-133h-551v4l309 598h-294v133h525v-4z" />
    <glyph glyph-name="bracketleft" unicode="[" horiz-adv-x="333" 
d="M308 583h-114v-588h114v-116h-253v820h253v-116z" />
    <glyph glyph-name="backslash" unicode="\" horiz-adv-x="522" 
d="M517 0h-149l-363 735h148z" />
    <glyph glyph-name="bracketright" unicode="]" horiz-adv-x="336" 
d="M281 -121h-256v116h116v588h-116v116h256v-820z" />
    <glyph glyph-name="asciicircum" unicode="^" horiz-adv-x="527" 
d="M510 462h-130l-117 141l-116 -141h-130l246 298z" />
    <glyph glyph-name="underscore" unicode="_" horiz-adv-x="794" 
d="M757 -134h-720v134h720v-134z" />
    <glyph glyph-name="grave" unicode="`" horiz-adv-x="334" 
d="M319 573h-127l-172 145h165z" />
    <glyph glyph-name="a" unicode="a" horiz-adv-x="608" 
d="M253 517q55 0 91.5 -19.5t56.5 -47.5l8 57h132v-507h-132l-8 56q-20 -27 -56.5 -46.5t-91.5 -19.5q-51 0 -92.5 19.5t-71 55t-46 83.5t-16.5 105t16.5 105.5t46 83.5t71 55t92.5 20zM289 389q-51 0 -82.5 -36.5t-31.5 -99.5t31.5 -99t82.5 -36q38 0 62.5 18t41.5 45v144
q-17 27 -41.5 45.5t-62.5 18.5z" />
    <glyph glyph-name="b" unicode="b" horiz-adv-x="608" 
d="M214 461q19 21 53 38.5t88 17.5q51 0 92.5 -20t71 -55t46 -83.5t16.5 -105.5t-16.5 -105t-46 -83.5t-71 -55t-92.5 -19.5q-55 0 -92 19.5t-57 46.5l-7 -56h-132v760h147v-299zM319 389q-38 0 -63 -18.5t-42 -45.5v-144q17 -27 42 -45t63 -18q51 0 82.5 36t31.5 99
t-31.5 99.5t-82.5 36.5z" />
    <glyph glyph-name="c" unicode="c" horiz-adv-x="509" 
d="M289 517q71 0 122.5 -30.5t86.5 -85.5l-105 -78q-15 29 -40 48t-63 19q-28 0 -49.5 -10.5t-36 -29.5t-22 -44t-7.5 -53t7.5 -53t22.5 -43.5t36.5 -29t49.5 -10.5q37 0 63 19t42 48l103 -79q-35 -54 -86.5 -84.5t-122.5 -30.5q-58 0 -106.5 19.5t-83 55t-54 83.5
t-19.5 105t19.5 105.5t54 83.5t82.5 55t106 20z" />
    <glyph glyph-name="d" unicode="d" horiz-adv-x="608" 
d="M541 0h-132l-8 56q-20 -27 -56.5 -46.5t-91.5 -19.5q-51 0 -92.5 19.5t-71 55t-46 83.5t-16.5 105t16.5 105.5t46 83.5t71 55t92.5 20q54 0 88 -17.5t52 -38.5v299h148v-760zM289 389q-51 0 -82.5 -36.5t-31.5 -99.5t31.5 -99t82.5 -36q38 0 62.5 18t41.5 45v144
q-17 27 -41.5 45.5t-62.5 18.5z" />
    <glyph glyph-name="e" unicode="e" horiz-adv-x="549" 
d="M282 517q60 0 104 -20.5t73.5 -56t44 -82t14.5 -98.5v-47h-343q2 -49 31.5 -75.5t84.5 -26.5q38 0 66 14.5t45 37.5l101 -82q-40 -46 -91.5 -68.5t-123.5 -22.5q-60 0 -108 19.5t-82 54.5t-52.5 83t-18.5 105t18.5 105.5t52.5 84t80.5 55.5t103.5 20zM277 406
q-45 0 -72.5 -28t-29.5 -72h198q-2 43 -26.5 71.5t-69.5 28.5z" />
    <glyph glyph-name="f" unicode="f" horiz-adv-x="387" 
d="M306 760q37 0 66.5 -8.5t50.5 -23.5l-52 -117q-9 9 -24 15t-33 6q-30 0 -46.5 -19.5t-16.5 -53.5v-52h114v-124h-114v-383h-147v383h-88v124h88v44q0 46 14 84t40 66t63.5 43.5t84.5 15.5z" />
    <glyph glyph-name="g" unicode="g" horiz-adv-x="609" 
d="M253 517q55 0 92 -19.5t57 -47.5l7 57h132v-486q0 -61 -19.5 -109.5t-55.5 -82t-87 -51.5t-113 -18q-87 0 -146.5 30t-102.5 79l96 96q28 -32 63.5 -54.5t87.5 -22.5q61 0 95 36.5t35 93.5v39q-18 -21 -52 -38.5t-89 -17.5q-50 0 -91.5 19.5t-71.5 54t-46.5 81.5
t-16.5 103t16.5 103t46.5 81.5t71.5 54t91.5 19.5zM289 389q-51 0 -82 -35t-31 -95t31 -95t82 -35q38 0 63 18.5t42 45.5v132q-17 27 -42 45.5t-63 18.5z" />
    <glyph glyph-name="h" unicode="h" horiz-adv-x="596" 
d="M214 462q23 24 55.5 39.5t80.5 15.5q93 0 141.5 -61t48.5 -164v-292h-147v284q0 42 -22 68.5t-61 26.5q-35 0 -58.5 -18.5t-37.5 -41.5v-319h-147v760h147v-298z" />
    <glyph glyph-name="i" unicode="i" horiz-adv-x="282" 
d="M214 0h-147v507h147v-507zM141 753q38 0 62 -24t24 -62t-24 -62t-62 -24t-62 24t-24 62t24 62t62 24z" />
    <glyph glyph-name="j" unicode="j" horiz-adv-x="282" 
d="M214 -28q0 -45 -16 -84t-44.5 -67.5t-68.5 -44.5t-87 -16q-108 0 -177 72l95 98q13 -15 33 -28.5t46 -13.5q33 0 52.5 19.5t19.5 53.5v546h147v-535zM141 753q38 0 62 -24t24 -62t-24 -62t-62 -24t-62 24t-24 62t24 62t62 24z" />
    <glyph glyph-name="k" unicode="k" horiz-adv-x="578" 
d="M214 246l170 261h176l-155 -209l169 -298h-167l-99 171l-125 -171h-116v760h147v-514z" />
    <glyph glyph-name="l" unicode="l" horiz-adv-x="282" 
d="M214 0h-147v760h147v-760z" />
    <glyph glyph-name="m" unicode="m" horiz-adv-x="907" 
d="M350 517q54 0 91.5 -22.5t60.5 -64.5q28 38 67.5 62.5t99.5 24.5q89 0 135.5 -61t46.5 -164v-292h-148v284q0 42 -19.5 68.5t-57.5 26.5q-33 0 -55.5 -18t-38.5 -42v-319h-147v284q0 42 -19.5 68.5t-57.5 26.5q-33 0 -55.5 -18.5t-38.5 -41.5v-319h-147v507h132l7 -56
q20 27 55 46.5t89 19.5z" />
    <glyph glyph-name="n" unicode="n" horiz-adv-x="596" 
d="M350 517q93 0 141.5 -61t48.5 -164v-292h-147v284q0 42 -22 68.5t-61 26.5q-35 0 -58.5 -18.5t-37.5 -41.5v-319h-147v507h132l7 -56q19 28 55 47t89 19z" />
    <glyph glyph-name="o" unicode="o" horiz-adv-x="588" 
d="M293 517q58 0 107 -20t85 -55.5t56 -84t20 -105.5t-20 -105t-56 -83t-85 -54.5t-107 -19.5t-106.5 19.5t-84 54.5t-55.5 83t-20 105t20 105.5t55.5 84t84 55.5t106.5 20zM293 389q-26 0 -47.5 -10.5t-37 -29t-24.5 -43.5t-9 -54t9 -53.5t24.5 -42.5t37 -28t47.5 -10
t48 10t37.5 28t24.5 42.5t9 53.5t-9 54t-24.5 43.5t-37.5 29t-48 10.5z" />
    <glyph glyph-name="p" unicode="p" horiz-adv-x="608" 
d="M355 517q51 0 92.5 -20t71 -55t46 -83.5t16.5 -105.5t-16.5 -105t-46 -83.5t-71 -55t-92.5 -19.5q-54 0 -88 17.5t-53 38.5v-276h-147v737h132l7 -57q20 28 57 47.5t92 19.5zM319 389q-38 0 -63 -18.5t-42 -45.5v-143q17 -28 42 -46t63 -18q51 0 82.5 36t31.5 99
t-31.5 99.5t-82.5 36.5z" />
    <glyph glyph-name="q" unicode="q" horiz-adv-x="608" 
d="M253 517q55 0 91.5 -19.5t56.5 -47.5l8 57h132v-737h-148v276q-18 -21 -52 -38.5t-88 -17.5q-51 0 -92.5 19.5t-71 55t-46 83.5t-16.5 105t16.5 105.5t46 83.5t71 55t92.5 20zM289 389q-51 0 -82.5 -36.5t-31.5 -99.5t31.5 -99t82.5 -36q38 0 62.5 18t41.5 46v143
q-17 27 -41.5 45.5t-62.5 18.5z" />
    <glyph glyph-name="r" unicode="r" horiz-adv-x="368" 
d="M353 371h-12q-45 0 -75 -19.5t-52 -47.5v-304h-147v507h131l9 -67q19 31 55.5 54t90.5 23v-146z" />
    <glyph glyph-name="s" unicode="s" horiz-adv-x="471" 
d="M257 517q53 0 100 -14.5t76 -40.5l-55 -104q-22 17 -52.5 30t-68.5 13q-66 0 -66 -40q0 -10 4 -17t14.5 -13t28 -11.5t44.5 -11.5q81 -20 120 -56.5t39 -93.5q0 -76 -59 -122t-162 -46q-58 0 -110 16.5t-84 44.5l56 105q26 -22 61 -36.5t78 -14.5q34 0 53 10.5t19 32.5
q0 20 -17.5 32.5t-68.5 24.5q-83 20 -123 53.5t-40 92.5q0 76 56 121t157 45z" />
    <glyph glyph-name="t" unicode="t" horiz-adv-x="424" 
d="M248 507h145v-124h-145v-192q0 -33 19 -51t51 -18q23 0 38.5 4.5t26.5 10.5l37 -116q-20 -12 -48.5 -21.5t-67.5 -9.5q-94 0 -148.5 51t-54.5 148v194h-91v124h91v168h147v-168z" />
    <glyph glyph-name="u" unicode="u" 
d="M525 0h-132l-7 55q-20 -28 -56 -46.5t-91 -18.5q-90 0 -136.5 60.5t-46.5 162.5v294h147v-286q0 -42 20 -67.5t58 -25.5q36 0 59 18.5t38 41.5v319h147v-507z" />
    <glyph glyph-name="v" unicode="v" horiz-adv-x="575" 
d="M290 -10h-4l-279 517h165l116 -247l115 247h164z" />
    <glyph glyph-name="w" unicode="w" horiz-adv-x="774" 
d="M524 -10h-4l-133 250l-133 -250h-4l-243 517h165l94 -240l119 240h4l119 -240l94 240h165z" />
    <glyph glyph-name="x" unicode="x" horiz-adv-x="532" 
d="M365 256l161 -256h-173l-90 150l-89 -150h-173l162 256l-155 251h171l84 -148l86 148h170z" />
    <glyph glyph-name="y" unicode="y" horiz-adv-x="579" 
d="M176 -230h-168l202 357l-200 380h164l115 -248l116 248h165z" />
    <glyph glyph-name="z" unicode="z" horiz-adv-x="479" 
d="M455 503l-210 -379h209v-124h-432v4l210 379h-197v124h420v-4z" />
    <glyph glyph-name="braceleft" unicode="{" horiz-adv-x="341" 
d="M316 583q-49 0 -75 -30t-11 -85l8 -39q10 -28 8.5 -51.5t-10 -41.5t-22.5 -30t-29 -17q15 -5 29 -17t22.5 -30t10 -41.5t-8.5 -51.5l-8 -39q-15 -55 11 -85t75 -30v-116q-68 0 -119 18.5t-81 52t-36.5 81t14.5 106.5l8 37q8 23 4 42t-16.5 33t-31 23.5t-38.5 14.5v4
q20 4 38.5 14t31 24t16.5 33t-4 42l-8 37q-21 58 -14.5 106t36.5 81.5t81 52t119 18.5v-116z" />
    <glyph glyph-name="bar" unicode="|" horiz-adv-x="251" 
d="M195 -121h-139v820h139v-820z" />
    <glyph glyph-name="braceright" unicode="}" horiz-adv-x="341" 
d="M25 699q68 0 119 -18.5t81 -52t37 -81.5t-14 -106l-9 -37q-8 -23 -4 -42t17 -33t31.5 -24t38.5 -14v-4q-20 -5 -38.5 -14.5t-31.5 -23.5t-17 -33t4 -42l9 -37q21 -59 14 -106.5t-37 -81t-81 -52t-119 -18.5v116q50 0 75.5 30t10.5 85l-8 39q-9 28 -8 51.5t9.5 41.5
t22.5 30t29 17q-15 5 -29 17t-22.5 30t-9.5 41.5t8 51.5l8 39q15 55 -10.5 85t-75.5 30v116v0z" />
    <glyph glyph-name="asciitilde" unicode="~" horiz-adv-x="603" 
d="M201 459q39 0 66 -12.5t49 -28t42.5 -28t44.5 -12.5q38 0 61.5 21t35.5 50l84 -68q-26 -65 -73.5 -102t-107.5 -37q-41 0 -66.5 13t-45.5 28t-40 28t-50 13q-38 0 -61.5 -21t-35.5 -50l-84 68q26 65 73.5 101.5t107.5 36.5z" />
    <glyph glyph-name="exclamdown" unicode="&#xa1;" horiz-adv-x="294" 
d="M74 277h147v-509h-147v509zM147 344q-38 0 -62.5 24t-24.5 62t24.5 62t62.5 24t62 -24t24 -62t-24 -62t-62 -24z" />
    <glyph glyph-name="cent" unicode="&#xa2;" horiz-adv-x="516" 
d="M350 510q48 -11 84.5 -39t63.5 -70l-105 -78q-15 29 -40 48t-63 19q-28 0 -49.5 -10.5t-36 -29.5t-22 -44t-7.5 -53t7.5 -53t22.5 -43.5t36.5 -29t49.5 -10.5q37 0 63 19t42 48l103 -79q-27 -42 -64 -69.5t-85 -38.5v-146h-122v146q-45 9 -82.5 32t-63.5 56.5t-40.5 76
t-14.5 91.5t14.5 92t40.5 76.5t63.5 56.5t82.5 32v132h122v-132z" />
    <glyph glyph-name="sterling" unicode="&#xa3;" horiz-adv-x="602" 
d="M312 748q48 0 85.5 -15t65 -39t45 -53.5t26.5 -58.5l-143 -39q-6 34 -28 55.5t-57 21.5q-43 0 -66 -26.5t-23 -71.5q0 -25 5 -48t11 -45h160v-114h-128q7 -25 7 -52q0 -44 -11 -76.5t-28 -58.5h120q43 0 63 19t20 70h144q0 -105 -47.5 -161t-148.5 -56h-369v4
q19 29 41 62.5t39.5 72.5t25 83t-2.5 93h-97v114h61q-5 19 -8.5 39t-3.5 44q0 54 17 97.5t48.5 74t76.5 47.5t100 17z" />
    <glyph glyph-name="currency" unicode="&#xa4;" horiz-adv-x="665" 
d="M641 476l-118 -117q23 -44 23 -97q0 -54 -24 -97l119 -117l-94 -93l-120 119q-42 -21 -95 -21t-95 21l-119 -119l-94 93l118 117q-23 44 -23 97t23 97l-118 117l94 93l118 -118q21 11 45 17t51 6t51 -6t46 -17l118 118zM332 364q-40 0 -65.5 -29t-25.5 -73
q0 -43 25.5 -71.5t65.5 -28.5t66 28.5t26 71.5q0 44 -26 73t-66 29z" />
    <glyph glyph-name="yen" unicode="&#xa5;" horiz-adv-x="693" 
d="M481 396h108v-106h-166v-74h166v-107h-166v-109h-152v109h-165v107h165v74h-165v106h106l-209 339h177l167 -284l166 284h178z" />
    <glyph glyph-name="brokenbar" unicode="&#xa6;" horiz-adv-x="251" 
d="M195 391h-139v308h139v-308zM195 -121h-139v308h139v-308z" />
    <glyph glyph-name="section" unicode="&#xa7;" horiz-adv-x="458" 
d="M229 399q-32 0 -51.5 -21t-19.5 -53t19.5 -52.5t51.5 -20.5q31 0 51.5 20.5t20.5 52.5t-20.5 53t-51.5 21zM249 748q54 0 93 -18.5t68 -49.5l-82 -89q-14 17 -33 27.5t-47 10.5q-35 0 -54 -17t-19 -45q0 -43 47 -59q15 -6 29.5 -7t31.5 -6q33 -7 60 -22.5t46.5 -38
t30 -50.5t10.5 -59q0 -44 -19.5 -78t-53.5 -56q27 -17 43 -43.5t16 -65.5q0 -36 -14.5 -69t-42.5 -57.5t-67.5 -39t-89.5 -14.5q-53 0 -100 19.5t-80 61.5l87 88q15 -22 38.5 -36t55.5 -14q36 0 56 18t20 47q0 19 -9.5 31.5t-27.5 21.5q-14 8 -28.5 9t-31.5 5
q-69 13 -111.5 59.5t-42.5 112.5q0 42 19 76.5t52 55.5q-27 18 -43.5 45.5t-16.5 68.5q0 36 14 68t41 56t66 38.5t89 14.5z" />
    <glyph glyph-name="dieresis" unicode="&#xa8;" horiz-adv-x="366" 
d="M87 719q31 0 50.5 -19.5t19.5 -50.5t-19.5 -50.5t-50.5 -19.5t-50.5 19.5t-19.5 50.5t19.5 50.5t50.5 19.5zM279 719q30 0 50 -19.5t20 -50.5t-20 -50.5t-50 -19.5q-31 0 -50.5 19.5t-19.5 50.5t19.5 50.5t50.5 19.5z" />
    <glyph glyph-name="copyright" unicode="&#xa9;" horiz-adv-x="689" 
d="M359 642q40 0 68.5 -12.5t52.5 -38.5l-48 -58q-12 15 -30.5 24t-42.5 9q-45 0 -69.5 -25.5t-24.5 -70.5q0 -47 24.5 -72.5t69.5 -25.5q24 0 42.5 9.5t31.5 23.5l47 -57q-25 -28 -54.5 -40t-66.5 -12q-38 0 -70 13t-55.5 36t-36.5 55t-13 70q0 37 13 68.5t36.5 54.5
t55.5 36t70 13zM345 785q67 0 124.5 -24.5t99.5 -67.5t66 -101.5t24 -127.5t-24 -128t-66 -101.5t-99.5 -66.5t-124.5 -24q-68 0 -125.5 24t-99.5 66.5t-65.5 101.5t-23.5 128t23.5 127.5t65.5 101.5t99.5 67.5t125.5 24.5zM345 711q-51 0 -94 -19t-73.5 -52.5t-48 -78.5
t-17.5 -97q0 -53 17.5 -98t48 -78t73.5 -51.5t94 -18.5q50 0 93 18.5t74 51.5t48.5 78t17.5 98q0 52 -17.5 97t-48.5 78.5t-74 52.5t-93 19z" />
    <glyph glyph-name="ordfeminine" unicode="&#xaa;" horiz-adv-x="440" 
d="M178 751q38 0 63 -13t39 -31l6 37h105v-356h-105l-6 37q-14 -18 -39 -31t-63 -13q-35 0 -63.5 14t-48.5 38.5t-31.5 58.5t-11.5 74t11.5 74t31.5 58.5t48.5 38.5t63.5 14zM210 649q-31 0 -50 -22t-19 -61t19 -61.5t50 -22.5q23 0 38 11.5t25 27.5v91q-10 15 -25 26
t-38 11z" />
    <glyph glyph-name="guillemotleft" unicode="&#xab;" horiz-adv-x="539" 
d="M153 256l120 -202h-133l-125 200v4l125 200h133zM404 256l120 -202h-133l-125 200v4l125 200h133z" />
    <glyph glyph-name="logicalnot" unicode="&#xac;" horiz-adv-x="615" 
d="M579 146h-102v206h-441v101h543v-307z" />
    <glyph glyph-name="registered" unicode="&#xae;" horiz-adv-x="689" 
d="M345 785q67 0 124.5 -24.5t99.5 -67.5t66 -101.5t24 -127.5t-24 -128t-66 -101.5t-99.5 -66.5t-124.5 -24q-68 0 -125.5 24t-99.5 66.5t-65.5 101.5t-23.5 128t23.5 127.5t65.5 101.5t99.5 67.5t125.5 24.5zM345 711q-51 0 -94 -19t-73.5 -52.5t-48 -78.5t-17.5 -97
q0 -53 17.5 -98t48 -78t73.5 -51.5t94 -18.5q50 0 93 18.5t74 51.5t48.5 78t17.5 98q0 52 -17.5 97t-48.5 78.5t-74 52.5t-93 19zM354 638q24 0 46.5 -7.5t39 -22t26.5 -35t10 -47.5q0 -35 -17 -60.5t-43 -39.5l76 -127h-93l-66 112h-36v-112h-81v339h138zM297 565v-82h49
q22 0 35.5 10t13.5 32q0 21 -13.5 30.5t-35.5 9.5h-49z" />
    <glyph glyph-name="macron" unicode="&#xaf;" horiz-adv-x="309" 
d="M291 592h-274v98h274v-98z" />
    <glyph glyph-name="degree" unicode="&#xb0;" horiz-adv-x="364" 
d="M183 747q33 0 61 -11.5t49 -32.5t32.5 -49t11.5 -61t-11.5 -61t-32.5 -48t-49 -31.5t-61 -11.5q-34 0 -62.5 11.5t-49.5 31.5t-32.5 48t-11.5 61t11.5 61t32.5 49t49.5 32.5t62.5 11.5zM183 657q-26 0 -43 -18t-17 -46q0 -26 17 -44t43 -18q25 0 41.5 18t16.5 44
q0 28 -16.5 46t-41.5 18z" />
    <glyph glyph-name="plusminus" unicode="&#xb1;" horiz-adv-x="512" 
d="M322 535h154v-134h-154v-153h-134v153h-152v134h152v153h134v-153zM476 56h-440v134h440v-134z" />
    <glyph glyph-name="uni00B2" unicode="&#xb2;" horiz-adv-x="344" 
d="M171 821q35 0 63 -10.5t48 -29t30.5 -44t10.5 -55.5q0 -32 -13 -58.5t-34 -53.5l-64 -83h113v-93h-290v3l151 226q17 22 23.5 34t6.5 28q0 19 -12.5 30.5t-32.5 11.5q-43 0 -51 -56l-96 22q12 66 49.5 97t97.5 31z" />
    <glyph glyph-name="uni00B3" unicode="&#xb3;" horiz-adv-x="337" 
d="M173 821q33 0 60.5 -10.5t46.5 -28.5t29.5 -42.5t10.5 -52.5q0 -29 -12.5 -49t-32.5 -33q23 -12 37.5 -33t14.5 -52q0 -58 -41 -96t-111 -38q-60 0 -99 28t-52 94l96 21q8 -49 55 -49q20 0 32.5 12.5t12.5 32.5q0 19 -12.5 31.5t-33.5 12.5h-46v80h46q17 1 29 11t12 28
t-12.5 28.5t-31.5 10.5q-17 0 -29 -10t-16 -32l-92 39q14 48 49.5 72.5t89.5 24.5z" />
    <glyph glyph-name="acute" unicode="&#xb4;" horiz-adv-x="334" 
d="M142 573h-127l134 145h165z" />
    <glyph glyph-name="uni00B5" unicode="&#xb5;" horiz-adv-x="603" 
d="M536 0h-132l-7 55q-20 -26 -52.5 -45.5t-80.5 -19.5q-17 0 -29 2.5t-21 7.5v-230h-147v737h147v-289q0 -41 20.5 -65.5t57.5 -24.5q36 0 58.5 18.5t38.5 41.5v319h147v-507z" />
    <glyph glyph-name="paragraph" unicode="&#xb6;" horiz-adv-x="756" 
d="M727 622h-84v-732h-123v732h-98v-732h-123v414h-3q-56 0 -105.5 12.5t-86.5 38.5t-58.5 66t-21.5 94q0 55 20.5 96.5t57 69t87 41t109.5 13.5h429v-113z" />
    <glyph glyph-name="periodcentered" unicode="&#xb7;" horiz-adv-x="233" 
d="M117 346q38 0 63.5 -25.5t25.5 -63.5q0 -39 -25.5 -64t-63.5 -25q-39 0 -64.5 25t-25.5 64q0 38 25.5 63.5t64.5 25.5z" />
    <glyph glyph-name="cedilla" unicode="&#xb8;" horiz-adv-x="248" 
d="M153 20l-13 -67q43 -3 69.5 -29t26.5 -71q0 -53 -34.5 -81t-86.5 -28q-29 0 -56 10t-44 32l47 55q10 -11 22.5 -18t28.5 -7q17 0 28 9.5t11 27.5q0 34 -45 37q-14 0 -26.5 -2t-22.5 -5l-3 4l27 139z" />
    <glyph glyph-name="uni00B9" unicode="&#xb9;" horiz-adv-x="269" 
d="M225 394h-106v264l-55 -29l-43 98l202 94h2v-427z" />
    <glyph glyph-name="ordmasculine" unicode="&#xba;" horiz-adv-x="425" 
d="M212 751q41 0 75.5 -14t60 -39t40 -58.5t14.5 -73.5t-14.5 -74t-40 -58.5t-60 -38.5t-75.5 -14t-75.5 14t-60 38.5t-39.5 58.5t-14 74t14 73.5t39.5 58.5t60 39t75.5 14zM212 649q-31 0 -51 -23.5t-20 -59.5t20 -60t51 -24t51.5 24t20.5 60t-20.5 59.5t-51.5 23.5z" />
    <glyph glyph-name="guillemotright" unicode="&#xbb;" horiz-adv-x="539" 
d="M273 258v-4l-125 -200h-133l120 202l-120 202h133zM524 258v-4l-125 -200h-133l120 202l-120 202h133z" />
    <glyph glyph-name="onequarter" unicode="&#xbc;" horiz-adv-x="772" 
d="M264 0h-133l364 735h133zM225 294h-106v264l-55 -29l-43 98l202 94h2v-427zM718 123h44v-76h-44v-47h-105v47h-210v2l313 379h2v-305zM546 118h78v95z" />
    <glyph glyph-name="onehalf" unicode="&#xbd;" horiz-adv-x="830" 
d="M264 0h-133l364 735h133zM225 294h-106v264l-55 -29l-43 98l202 94h2v-427zM657 427q35 0 63 -10.5t48 -29t30.5 -44t10.5 -55.5q0 -32 -13 -58.5t-34 -53.5l-64 -83h113v-93h-290v3l151 226q17 22 23.5 34t6.5 28q0 19 -12.5 30.5t-32.5 11.5q-43 0 -51 -56l-96 22
q12 66 49.5 97t97.5 31z" />
    <glyph glyph-name="threequarters" unicode="&#xbe;" horiz-adv-x="841" 
d="M332 0h-133l364 735h133zM786 123h44v-76h-44v-47h-105v47h-210v2l313 379h2v-305zM614 118h78v95zM173 721q33 0 60.5 -10.5t46.5 -28.5t29.5 -42.5t10.5 -52.5q0 -29 -12.5 -49t-32.5 -33q23 -12 37.5 -33t14.5 -52q0 -58 -41 -96t-111 -38q-60 0 -99 28t-52 94l96 21
q8 -49 55 -49q20 0 32.5 12.5t12.5 32.5q0 19 -12.5 31.5t-33.5 12.5h-46v80h46q17 1 29 11t12 28t-12.5 28.5t-31.5 10.5q-17 0 -29 -10t-16 -32l-92 39q14 48 49.5 72.5t89.5 24.5z" />
    <glyph glyph-name="questiondown" unicode="&#xbf;" horiz-adv-x="525" 
d="M269 -245q-53 0 -96.5 16.5t-75 45t-48.5 66.5t-17 82t12.5 73.5t30.5 51t40 37.5t40 33t30.5 38t12.5 53v26h147v-46q0 -41 -12 -69t-29.5 -48.5t-38.5 -36t-38.5 -31t-29.5 -34.5t-12 -45q0 -39 25 -59.5t61 -20.5q39 0 62.5 23t28.5 61l145 -24q-19 -91 -78.5 -141.5
t-159.5 -50.5zM271 344q-38 0 -62.5 24t-24.5 62t24.5 62t62.5 24t62 -24t24 -62t-24 -62t-62 -24z" />
    <glyph glyph-name="Agrave" unicode="&#xc0;" horiz-adv-x="724" 
d="M719 0h-168l-48 114h-282l-48 -114h-168l355 748h4zM269 233h186l-93 220zM431 772h-142l-157 120h173z" />
    <glyph glyph-name="Aacute" unicode="&#xc1;" horiz-adv-x="724" 
d="M719 0h-168l-48 114h-282l-48 -114h-168l355 748h4zM269 233h186l-93 220zM420 772h-142l126 120h173z" />
    <glyph glyph-name="Acircumflex" unicode="&#xc2;" horiz-adv-x="724" 
d="M719 0h-168l-48 114h-282l-48 -114h-168l355 748h4zM269 233h186l-93 220zM536 772h-116l-58 49l-59 -49h-116l175 154z" />
    <glyph glyph-name="Atilde" unicode="&#xc3;" horiz-adv-x="724" 
d="M719 0h-168l-48 114h-282l-48 -114h-168l355 748h4zM269 233h186l-93 220zM303 925q27 0 45 -11t31 -23.5t24 -23.5t25 -11q17 0 23.5 17t6.5 46h79q0 -38 -9.5 -66.5t-25.5 -47.5t-37.5 -28t-45.5 -9q-29 0 -45 11t-27.5 23.5t-22 23.5t-26.5 11q-20 0 -27 -16.5
t-7 -46.5h-79q0 40 9.5 68.5t26 47t37.5 27t45 8.5z" />
    <glyph glyph-name="Adieresis" unicode="&#xc4;" horiz-adv-x="724" 
d="M719 0h-168l-48 114h-282l-48 -114h-168l355 748h4zM269 233h186l-93 220zM266 906q31 0 50.5 -19.5t19.5 -50.5q0 -30 -19.5 -50t-50.5 -20t-50.5 20t-19.5 50q0 31 19.5 50.5t50.5 19.5zM458 906q30 0 50 -19.5t20 -50.5q0 -30 -20 -50t-50 -20q-31 0 -50.5 20
t-19.5 50q0 31 19.5 50.5t50.5 19.5z" />
    <glyph glyph-name="Aring" unicode="&#xc5;" horiz-adv-x="724" 
d="M719 0h-168l-48 114h-282l-48 -114h-168l355 748h4zM269 233h186l-93 220zM362 1010q26 0 48 -9t38.5 -25.5t25.5 -38.5t9 -48q0 -53 -34.5 -86.5t-86.5 -33.5q-54 0 -88.5 33.5t-34.5 86.5q0 26 9 48t25.5 38.5t39 25.5t49.5 9zM362 933q-18 0 -30.5 -12.5t-12.5 -31.5
t12.5 -31t30.5 -12q17 0 29 12t12 31t-12 31.5t-29 12.5z" />
    <glyph glyph-name="AE" unicode="&#xc6;" horiz-adv-x="890" 
d="M846 596h-375l64 -159h269v-129h-216l70 -169h196v-139h-305l-47 116h-280l-47 -116h-170l326 735h515v-139zM268 231h188l-94 235z" />
    <glyph glyph-name="Ccedilla" unicode="&#xc7;" horiz-adv-x="682" 
d="M407 748q87 0 150 -27.5t116 -82.5l-96 -111q-29 35 -71 58.5t-99 23.5q-51 0 -92 -18t-70 -50t-45 -76.5t-16 -96.5q0 -53 16 -97t45 -76.5t70 -50.5t92 -18q57 0 100 24.5t72 59.5l95 -111q-55 -60 -120 -85.5t-146 -26.5l-6 -34q43 -3 69.5 -29t26.5 -71
q0 -53 -34.5 -81t-86.5 -28q-29 0 -56 10t-44 32l47 55q10 -11 22.5 -18t28.5 -7q17 0 28 9.5t11 27.5q0 34 -45 37q-14 0 -26.5 -2t-22.5 -5l-3 4l20 106q-69 11 -125.5 43.5t-97 82t-62.5 113t-22 136.5q0 81 28 150.5t78 120.5t119 80t152 29z" />
    <glyph glyph-name="Egrave" unicode="&#xc8;" 
d="M548 596h-322v-159h279v-129h-279v-169h330v-139h-483v735h475v-139zM391 772h-142l-157 120h173z" />
    <glyph glyph-name="Eacute" unicode="&#xc9;" 
d="M548 596h-322v-159h279v-129h-279v-169h330v-139h-483v735h475v-139zM380 772h-142l126 120h173z" />
    <glyph glyph-name="Ecircumflex" unicode="&#xca;" 
d="M548 596h-322v-159h279v-129h-279v-169h330v-139h-483v735h475v-139zM496 772h-116l-58 49l-59 -49h-116l175 154z" />
    <glyph glyph-name="Edieresis" unicode="&#xcb;" 
d="M548 596h-322v-159h279v-129h-279v-169h330v-139h-483v735h475v-139zM226 906q31 0 50.5 -19.5t19.5 -50.5q0 -30 -19.5 -50t-50.5 -20t-50.5 20t-19.5 50q0 31 19.5 50.5t50.5 19.5zM418 906q30 0 50 -19.5t20 -50.5q0 -30 -20 -50t-50 -20q-31 0 -50.5 20t-19.5 50
q0 31 19.5 50.5t50.5 19.5z" />
    <glyph glyph-name="Igrave" unicode="&#xcc;" horiz-adv-x="299" 
d="M226 0h-153v735h153v-735zM220 772h-142l-157 120h173z" />
    <glyph glyph-name="Iacute" unicode="&#xcd;" horiz-adv-x="299" 
d="M226 0h-153v735h153v-735zM207 772h-142l126 120h173z" />
    <glyph glyph-name="Icircumflex" unicode="&#xce;" horiz-adv-x="299" 
d="M226 0h-153v735h153v-735zM324 772h-116l-58 49l-59 -49h-116l175 154z" />
    <glyph glyph-name="Idieresis" unicode="&#xcf;" horiz-adv-x="299" 
d="M226 0h-153v735h153v-735zM55 906q31 0 50.5 -19.5t19.5 -50.5q0 -30 -19.5 -50t-50.5 -20t-50.5 20t-19.5 50q0 31 19.5 50.5t50.5 19.5zM247 906q30 0 50 -19.5t20 -50.5q0 -30 -20 -50t-50 -20q-31 0 -50.5 20t-19.5 50q0 31 19.5 50.5t50.5 19.5z" />
    <glyph glyph-name="Eth" unicode="&#xd0;" horiz-adv-x="755" 
d="M323 735q94 0 168.5 -24.5t126.5 -72t79.5 -115.5t27.5 -155t-27 -155.5t-79 -115.5t-126.5 -72t-169.5 -25h-234v330h-82v98h82v307h234zM242 595v-167h102v-98h-102v-191h76q125 0 188.5 59.5t63.5 168.5t-63.5 168.5t-188.5 59.5h-76z" />
    <glyph glyph-name="Ntilde" unicode="&#xd1;" horiz-adv-x="737" 
d="M664 -13h-4l-434 423v-410h-153v748h4l434 -423v410h153v-748zM310 925q27 0 45 -11t31 -23.5t24 -23.5t25 -11q17 0 23.5 17t6.5 46h79q0 -38 -9.5 -66.5t-25.5 -47.5t-37.5 -28t-45.5 -9q-29 0 -45 11t-27.5 23.5t-22 23.5t-26.5 11q-20 0 -27 -16.5t-7 -46.5h-79
q0 40 9.5 68.5t26 47t37.5 27t45 8.5z" />
    <glyph glyph-name="Ograve" unicode="&#xd2;" horiz-adv-x="814" 
d="M407 748q81 0 150 -28.5t120 -79.5t79.5 -121t28.5 -153q0 -82 -28.5 -151.5t-79.5 -120t-120 -79t-150 -28.5t-150.5 28.5t-119.5 79t-78.5 120t-28.5 151.5q0 83 28.5 153t78.5 121t119.5 79.5t150.5 28.5zM407 609q-49 0 -90 -18t-70.5 -50.5t-46 -77t-16.5 -97.5
t16.5 -97t46 -75.5t70.5 -49.5t90 -18t90 18t70.5 49.5t46 75.5t16.5 97t-16.5 97.5t-46 77t-70.5 50.5t-90 18zM476 782h-142l-157 120h173z" />
    <glyph glyph-name="Oacute" unicode="&#xd3;" horiz-adv-x="814" 
d="M407 748q81 0 150 -28.5t120 -79.5t79.5 -121t28.5 -153q0 -82 -28.5 -151.5t-79.5 -120t-120 -79t-150 -28.5t-150.5 28.5t-119.5 79t-78.5 120t-28.5 151.5q0 83 28.5 153t78.5 121t119.5 79.5t150.5 28.5zM407 609q-49 0 -90 -18t-70.5 -50.5t-46 -77t-16.5 -97.5
t16.5 -97t46 -75.5t70.5 -49.5t90 -18t90 18t70.5 49.5t46 75.5t16.5 97t-16.5 97.5t-46 77t-70.5 50.5t-90 18zM465 782h-142l126 120h173z" />
    <glyph glyph-name="Ocircumflex" unicode="&#xd4;" horiz-adv-x="814" 
d="M407 748q81 0 150 -28.5t120 -79.5t79.5 -121t28.5 -153q0 -82 -28.5 -151.5t-79.5 -120t-120 -79t-150 -28.5t-150.5 28.5t-119.5 79t-78.5 120t-28.5 151.5q0 83 28.5 153t78.5 121t119.5 79.5t150.5 28.5zM407 609q-49 0 -90 -18t-70.5 -50.5t-46 -77t-16.5 -97.5
t16.5 -97t46 -75.5t70.5 -49.5t90 -18t90 18t70.5 49.5t46 75.5t16.5 97t-16.5 97.5t-46 77t-70.5 50.5t-90 18zM581 782h-116l-58 49l-59 -49h-116l175 154z" />
    <glyph glyph-name="Otilde" unicode="&#xd5;" horiz-adv-x="814" 
d="M407 748q81 0 150 -28.5t120 -79.5t79.5 -121t28.5 -153q0 -82 -28.5 -151.5t-79.5 -120t-120 -79t-150 -28.5t-150.5 28.5t-119.5 79t-78.5 120t-28.5 151.5q0 83 28.5 153t78.5 121t119.5 79.5t150.5 28.5zM407 609q-49 0 -90 -18t-70.5 -50.5t-46 -77t-16.5 -97.5
t16.5 -97t46 -75.5t70.5 -49.5t90 -18t90 18t70.5 49.5t46 75.5t16.5 97t-16.5 97.5t-46 77t-70.5 50.5t-90 18zM348 935q27 0 45 -11t31 -23.5t24 -23.5t25 -11q17 0 23.5 17t6.5 46h79q0 -38 -9.5 -66.5t-25.5 -47.5t-37.5 -28t-45.5 -9q-29 0 -45 11t-27.5 23.5t-22 23.5
t-26.5 11q-20 0 -27 -16.5t-7 -46.5h-79q0 40 9.5 68.5t26 47t37.5 27t45 8.5z" />
    <glyph glyph-name="Odieresis" unicode="&#xd6;" horiz-adv-x="814" 
d="M407 748q81 0 150 -28.5t120 -79.5t79.5 -121t28.5 -153q0 -82 -28.5 -151.5t-79.5 -120t-120 -79t-150 -28.5t-150.5 28.5t-119.5 79t-78.5 120t-28.5 151.5q0 83 28.5 153t78.5 121t119.5 79.5t150.5 28.5zM407 609q-49 0 -90 -18t-70.5 -50.5t-46 -77t-16.5 -97.5
t16.5 -97t46 -75.5t70.5 -49.5t90 -18t90 18t70.5 49.5t46 75.5t16.5 97t-16.5 97.5t-46 77t-70.5 50.5t-90 18zM311 916q31 0 50.5 -19.5t19.5 -50.5q0 -30 -19.5 -50t-50.5 -20t-50.5 20t-19.5 50q0 31 19.5 50.5t50.5 19.5zM503 916q30 0 50 -19.5t20 -50.5
q0 -30 -20 -50t-50 -20q-31 0 -50.5 20t-19.5 50q0 31 19.5 50.5t50.5 19.5z" />
    <glyph glyph-name="multiply" unicode="&#xd7;" horiz-adv-x="491" 
d="M455 464l-115 -115l115 -114l-95 -95l-114 115l-115 -115l-94 95l114 114l-114 114l94 95l115 -114l114 115z" />
    <glyph glyph-name="Oslash" unicode="&#xd8;" horiz-adv-x="814" 
d="M407 748q70 0 133 -23l50 90h130l-79 -144q67 -51 105.5 -129.5t38.5 -175.5q0 -82 -28.5 -151.5t-79.5 -120t-120 -79t-150 -28.5q-35 0 -68.5 5.5t-63.5 15.5l-49 -88h-131l79 142q-67 51 -105.5 129t-38.5 175q0 83 28.5 153t78.5 121t119.5 79.5t150.5 28.5zM407 609
q-49 0 -90 -18t-70.5 -50.5t-46 -77t-16.5 -97.5t16.5 -97t45.5 -76l225 407q-30 9 -64 9zM630 366q0 53 -16.5 97.5t-45.5 76.5l-224 -406q32 -8 63 -8q49 0 90 18t70.5 49.5t46 75.5t16.5 97z" />
    <glyph glyph-name="Ugrave" unicode="&#xd9;" horiz-adv-x="694" 
d="M630 264q0 -63 -18 -114t-54 -87t-89 -56t-122 -20t-122 20t-89 56t-54 87t-18 114v471h153v-461q0 -66 32 -107t98 -41q65 0 98 41t33 107v461h152v-471zM416 772h-142l-157 120h173z" />
    <glyph glyph-name="Uacute" unicode="&#xda;" horiz-adv-x="694" 
d="M630 264q0 -63 -18 -114t-54 -87t-89 -56t-122 -20t-122 20t-89 56t-54 87t-18 114v471h153v-461q0 -66 32 -107t98 -41q65 0 98 41t33 107v461h152v-471zM405 772h-142l126 120h173z" />
    <glyph glyph-name="Ucircumflex" unicode="&#xdb;" horiz-adv-x="694" 
d="M630 264q0 -63 -18 -114t-54 -87t-89 -56t-122 -20t-122 20t-89 56t-54 87t-18 114v471h153v-461q0 -66 32 -107t98 -41q65 0 98 41t33 107v461h152v-471zM521 772h-116l-58 49l-59 -49h-116l175 154z" />
    <glyph glyph-name="Udieresis" unicode="&#xdc;" horiz-adv-x="694" 
d="M630 264q0 -63 -18 -114t-54 -87t-89 -56t-122 -20t-122 20t-89 56t-54 87t-18 114v471h153v-461q0 -66 32 -107t98 -41q65 0 98 41t33 107v461h152v-471zM251 906q31 0 50.5 -19.5t19.5 -50.5q0 -30 -19.5 -50t-50.5 -20t-50.5 20t-19.5 50q0 31 19.5 50.5t50.5 19.5z
M443 906q30 0 50 -19.5t20 -50.5q0 -30 -20 -50t-50 -20q-31 0 -50.5 20t-19.5 50q0 31 19.5 50.5t50.5 19.5z" />
    <glyph glyph-name="Yacute" unicode="&#xdd;" horiz-adv-x="696" 
d="M425 301v-301h-152v298l-269 437h177l167 -284l167 284h177zM406 772h-142l126 120h173z" />
    <glyph glyph-name="Thorn" unicode="&#xde;" horiz-adv-x="605" 
d="M226 612h111q48 0 91.5 -14.5t77 -42.5t53.5 -69.5t20 -94.5t-20 -94t-53.5 -69t-77 -42.5t-91.5 -14.5h-111v-171h-153v735h153v-123zM226 481v-179h96q44 0 73.5 22.5t29.5 66.5t-29.5 67t-73.5 23h-96z" />
    <glyph glyph-name="germandbls" unicode="&#xdf;" horiz-adv-x="657" 
d="M324 748q55 0 99.5 -16t76 -44.5t48.5 -68t17 -85.5q0 -50 -21 -82.5t-50 -50.5q22 -8 43 -22.5t38 -37t27.5 -54t10.5 -71.5q0 -51 -17 -93.5t-49.5 -72.5t-79 -46.5t-104.5 -16.5q-29 0 -53.5 5t-44.5 14l25 130q15 -8 30 -12.5t38 -4.5q43 0 71.5 26t28.5 73
q0 73 -78 96q-17 5 -34 7t-38 2v111q18 0 31.5 4t27.5 12q19 10 31.5 28.5t12.5 44.5q0 44 -28.5 69t-66.5 25q-42 0 -69.5 -26t-27.5 -81v-510h-148v502q0 55 20 100.5t54.5 78t80.5 50t98 17.5z" />
    <glyph glyph-name="agrave" unicode="&#xe0;" horiz-adv-x="608" 
d="M253 517q55 0 91.5 -19.5t56.5 -47.5l8 57h132v-507h-132l-8 56q-20 -27 -56.5 -46.5t-91.5 -19.5q-51 0 -92.5 19.5t-71 55t-46 83.5t-16.5 105t16.5 105.5t46 83.5t71 55t92.5 20zM289 389q-51 0 -82.5 -36.5t-31.5 -99.5t31.5 -99t82.5 -36q38 0 62.5 18t41.5 45v144
q-17 27 -41.5 45.5t-62.5 18.5zM364 573h-127l-172 145h165z" />
    <glyph glyph-name="aacute" unicode="&#xe1;" horiz-adv-x="608" 
d="M253 517q55 0 91.5 -19.5t56.5 -47.5l8 57h132v-507h-132l-8 56q-20 -27 -56.5 -46.5t-91.5 -19.5q-51 0 -92.5 19.5t-71 55t-46 83.5t-16.5 105t16.5 105.5t46 83.5t71 55t92.5 20zM289 389q-51 0 -82.5 -36.5t-31.5 -99.5t31.5 -99t82.5 -36q38 0 62.5 18t41.5 45v144
q-17 27 -41.5 45.5t-62.5 18.5zM348 573h-127l134 145h165z" />
    <glyph glyph-name="acircumflex" unicode="&#xe2;" horiz-adv-x="608" 
d="M253 517q55 0 91.5 -19.5t56.5 -47.5l8 57h132v-507h-132l-8 56q-20 -27 -56.5 -46.5t-91.5 -19.5q-51 0 -92.5 19.5t-71 55t-46 83.5t-16.5 105t16.5 105.5t46 83.5t71 55t92.5 20zM289 389q-51 0 -82.5 -36.5t-31.5 -99.5t31.5 -99t82.5 -36q38 0 62.5 18t41.5 45v144
q-17 27 -41.5 45.5t-62.5 18.5zM462 574h-113l-54 57l-54 -57h-113l167 192z" />
    <glyph glyph-name="atilde" unicode="&#xe3;" horiz-adv-x="608" 
d="M253 517q55 0 91.5 -19.5t56.5 -47.5l8 57h132v-507h-132l-8 56q-20 -27 -56.5 -46.5t-91.5 -19.5q-51 0 -92.5 19.5t-71 55t-46 83.5t-16.5 105t16.5 105.5t46 83.5t71 55t92.5 20zM289 389q-51 0 -82.5 -36.5t-31.5 -99.5t31.5 -99t82.5 -36q38 0 62.5 18t41.5 45v144
q-17 27 -41.5 45.5t-62.5 18.5zM238 734q27 0 45 -11t31 -23.5t24 -23.5t25 -11q17 0 23.5 16.5t6.5 46.5h79q0 -40 -9.5 -69.5t-25.5 -49t-37.5 -29t-45.5 -9.5q-29 0 -45 11t-27.5 23.5t-22 23.5t-26.5 11q-20 0 -27 -16.5t-7 -46.5h-79q0 41 9.5 71t26 49t37.5 28t45 9z
" />
    <glyph glyph-name="adieresis" unicode="&#xe4;" horiz-adv-x="608" 
d="M253 517q55 0 91.5 -19.5t56.5 -47.5l8 57h132v-507h-132l-8 56q-20 -27 -56.5 -46.5t-91.5 -19.5q-51 0 -92.5 19.5t-71 55t-46 83.5t-16.5 105t16.5 105.5t46 83.5t71 55t92.5 20zM289 389q-51 0 -82.5 -36.5t-31.5 -99.5t31.5 -99t82.5 -36q38 0 62.5 18t41.5 45v144
q-17 27 -41.5 45.5t-62.5 18.5zM200 719q31 0 50.5 -19.5t19.5 -50.5t-19.5 -50.5t-50.5 -19.5t-50.5 19.5t-19.5 50.5t19.5 50.5t50.5 19.5zM392 719q30 0 50 -19.5t20 -50.5t-20 -50.5t-50 -19.5q-31 0 -50.5 19.5t-19.5 50.5t19.5 50.5t50.5 19.5z" />
    <glyph glyph-name="aring" unicode="&#xe5;" horiz-adv-x="608" 
d="M253 517q55 0 91.5 -19.5t56.5 -47.5l8 57h132v-507h-132l-8 56q-20 -27 -56.5 -46.5t-91.5 -19.5q-51 0 -92.5 19.5t-71 55t-46 83.5t-16.5 105t16.5 105.5t46 83.5t71 55t92.5 20zM289 389q-51 0 -82.5 -36.5t-31.5 -99.5t31.5 -99t82.5 -36q38 0 62.5 18t41.5 45v144
q-17 27 -41.5 45.5t-62.5 18.5zM297 809q26 0 48 -9t38.5 -25.5t25.5 -38.5t9 -48q0 -53 -34.5 -86.5t-86.5 -33.5q-54 0 -88.5 33.5t-34.5 86.5q0 26 9 48t25.5 38.5t39 25.5t49.5 9zM297 732q-18 0 -30.5 -12.5t-12.5 -31.5t12.5 -31t30.5 -12q17 0 29 12t12 31t-12 31.5
t-29 12.5z" />
    <glyph glyph-name="ae" unicode="&#xe6;" horiz-adv-x="947" 
d="M684 517q58 0 101.5 -20t72.5 -55.5t43.5 -82.5t14.5 -101v-44h-354q8 -48 37.5 -75.5t89.5 -27.5q37 0 67 14.5t49 38.5l96 -83q-39 -46 -90.5 -68.5t-119.5 -22.5q-55 0 -94.5 18.5t-59.5 46.5l-6 -55h-122l-8 56q-20 -27 -56.5 -46.5t-91.5 -19.5q-51 0 -92.5 19.5
t-71 55t-46 83.5t-16.5 105t16.5 105.5t46 83.5t71 55t92.5 20q55 0 91.5 -19.5t56.5 -47.5l8 57h124l7 -56q21 27 57 46.5t87 19.5zM289 389q-51 0 -82.5 -36.5t-31.5 -99.5t31.5 -99t82.5 -36q38 0 62.5 18t41.5 45v144q-17 27 -41.5 45.5t-62.5 18.5zM667 406
q-42 0 -71 -25.5t-35 -74.5h210q-2 43 -29 71.5t-75 28.5z" />
    <glyph glyph-name="ccedilla" unicode="&#xe7;" horiz-adv-x="509" 
d="M289 517q71 0 122.5 -30.5t86.5 -85.5l-105 -78q-15 29 -40 48t-63 19q-28 0 -49.5 -10.5t-36 -29.5t-22 -44t-7.5 -53t7.5 -53t22.5 -43.5t36.5 -29t49.5 -10.5q37 0 63 19t42 48l103 -79q-34 -53 -83 -83t-116 -32l-7 -37q43 -3 69.5 -29t26.5 -71q0 -53 -34.5 -81
t-86.5 -28q-29 0 -56 10t-44 32l47 55q10 -11 22.5 -18t28.5 -7q17 0 28 9.5t11 27.5q0 34 -45 37q-14 0 -26.5 -2t-22.5 -5l-3 4l21 109q-46 9 -83 32t-63.5 56.5t-41 76.5t-14.5 92q0 57 19.5 105.5t54 83.5t82.5 55t106 20z" />
    <glyph glyph-name="egrave" unicode="&#xe8;" horiz-adv-x="549" 
d="M282 517q60 0 104 -20.5t73.5 -56t44 -82t14.5 -98.5v-47h-343q2 -49 31.5 -75.5t84.5 -26.5q38 0 66 14.5t45 37.5l101 -82q-40 -46 -91.5 -68.5t-123.5 -22.5q-60 0 -108 19.5t-82 54.5t-52.5 83t-18.5 105t18.5 105.5t52.5 84t80.5 55.5t103.5 20zM277 406
q-45 0 -72.5 -28t-29.5 -72h198q-2 43 -26.5 71.5t-69.5 28.5zM347 573h-127l-172 145h165z" />
    <glyph glyph-name="eacute" unicode="&#xe9;" horiz-adv-x="549" 
d="M282 517q60 0 104 -20.5t73.5 -56t44 -82t14.5 -98.5v-47h-343q2 -49 31.5 -75.5t84.5 -26.5q38 0 66 14.5t45 37.5l101 -82q-40 -46 -91.5 -68.5t-123.5 -22.5q-60 0 -108 19.5t-82 54.5t-52.5 83t-18.5 105t18.5 105.5t52.5 84t80.5 55.5t103.5 20zM277 406
q-45 0 -72.5 -28t-29.5 -72h198q-2 43 -26.5 71.5t-69.5 28.5zM331 573h-127l134 145h165z" />
    <glyph glyph-name="ecircumflex" unicode="&#xea;" horiz-adv-x="549" 
d="M282 517q60 0 104 -20.5t73.5 -56t44 -82t14.5 -98.5v-47h-343q2 -49 31.5 -75.5t84.5 -26.5q38 0 66 14.5t45 37.5l101 -82q-40 -46 -91.5 -68.5t-123.5 -22.5q-60 0 -108 19.5t-82 54.5t-52.5 83t-18.5 105t18.5 105.5t52.5 84t80.5 55.5t103.5 20zM277 406
q-45 0 -72.5 -28t-29.5 -72h198q-2 43 -26.5 71.5t-69.5 28.5zM446 574h-113l-54 57l-54 -57h-113l167 192z" />
    <glyph glyph-name="edieresis" unicode="&#xeb;" horiz-adv-x="549" 
d="M282 517q60 0 104 -20.5t73.5 -56t44 -82t14.5 -98.5v-47h-343q2 -49 31.5 -75.5t84.5 -26.5q38 0 66 14.5t45 37.5l101 -82q-40 -46 -91.5 -68.5t-123.5 -22.5q-60 0 -108 19.5t-82 54.5t-52.5 83t-18.5 105t18.5 105.5t52.5 84t80.5 55.5t103.5 20zM277 406
q-45 0 -72.5 -28t-29.5 -72h198q-2 43 -26.5 71.5t-69.5 28.5zM183 719q31 0 50.5 -19.5t19.5 -50.5t-19.5 -50.5t-50.5 -19.5t-50.5 19.5t-19.5 50.5t19.5 50.5t50.5 19.5zM375 719q30 0 50 -19.5t20 -50.5t-20 -50.5t-50 -19.5q-31 0 -50.5 19.5t-19.5 50.5t19.5 50.5
t50.5 19.5z" />
    <glyph glyph-name="igrave" unicode="&#xec;" horiz-adv-x="282" 
d="M210 573h-127l-172 145h165zM214 0h-147v507h147v-507z" />
    <glyph glyph-name="iacute" unicode="&#xed;" horiz-adv-x="282" 
d="M193 573h-127l134 145h165zM214 0h-147v507h147v-507z" />
    <glyph glyph-name="icircumflex" unicode="&#xee;" horiz-adv-x="282" 
d="M214 0h-147v507h147v-507zM309 574h-113l-54 57l-54 -57h-113l167 192z" />
    <glyph glyph-name="idieresis" unicode="&#xef;" horiz-adv-x="282" 
d="M46 719q31 0 50.5 -19.5t19.5 -50.5t-19.5 -50.5t-50.5 -19.5t-50.5 19.5t-19.5 50.5t19.5 50.5t50.5 19.5zM238 719q30 0 50 -19.5t20 -50.5t-20 -50.5t-50 -19.5q-31 0 -50.5 19.5t-19.5 50.5t19.5 50.5t50.5 19.5zM214 0h-147v507h147v-507z" />
    <glyph glyph-name="eth" unicode="&#xf0;" horiz-adv-x="584" 
d="M521 550h-113l98 -161q24 -31 37 -69t13 -82q0 -54 -19.5 -99.5t-54.5 -78.5t-83 -51.5t-104 -18.5t-104 18.5t-83 51.5t-54.5 78.5t-19.5 99.5q0 51 17.5 94.5t49 76t75 53t95.5 24.5l-39 64h-176v107h110l-62 103h177l62 -103h178v-107zM295 367q-25 0 -46 -10t-36 -27
t-23.5 -41t-8.5 -51q0 -56 32 -91.5t82 -35.5q24 0 45 9.5t36.5 26.5t24.5 40t9 51q0 27 -9 51t-24.5 41t-36.5 27t-45 10z" />
    <glyph glyph-name="ntilde" unicode="&#xf1;" horiz-adv-x="596" 
d="M350 517q93 0 141.5 -61t48.5 -164v-292h-147v284q0 42 -22 68.5t-61 26.5q-35 0 -58.5 -18.5t-37.5 -41.5v-319h-147v507h132l7 -56q19 28 55 47t89 19zM245 734q27 0 45 -11t31 -23.5t24 -23.5t25 -11q17 0 23.5 16.5t6.5 46.5h79q0 -40 -9.5 -69.5t-25.5 -49
t-37.5 -29t-45.5 -9.5q-29 0 -45 11t-27.5 23.5t-22 23.5t-26.5 11q-20 0 -27 -16.5t-7 -46.5h-79q0 41 9.5 71t26 49t37.5 28t45 9z" />
    <glyph glyph-name="ograve" unicode="&#xf2;" horiz-adv-x="588" 
d="M293 517q58 0 107 -20t85 -55.5t56 -84t20 -105.5t-20 -105t-56 -83t-85 -54.5t-107 -19.5t-106.5 19.5t-84 54.5t-55.5 83t-20 105t20 105.5t55.5 84t84 55.5t106.5 20zM293 389q-26 0 -47.5 -10.5t-37 -29t-24.5 -43.5t-9 -54t9 -53.5t24.5 -42.5t37 -28t47.5 -10
t48 10t37.5 28t24.5 42.5t9 53.5t-9 54t-24.5 43.5t-37.5 29t-48 10.5zM361 573h-127l-172 145h165z" />
    <glyph glyph-name="oacute" unicode="&#xf3;" horiz-adv-x="588" 
d="M293 517q58 0 107 -20t85 -55.5t56 -84t20 -105.5t-20 -105t-56 -83t-85 -54.5t-107 -19.5t-106.5 19.5t-84 54.5t-55.5 83t-20 105t20 105.5t55.5 84t84 55.5t106.5 20zM293 389q-26 0 -47.5 -10.5t-37 -29t-24.5 -43.5t-9 -54t9 -53.5t24.5 -42.5t37 -28t47.5 -10
t48 10t37.5 28t24.5 42.5t9 53.5t-9 54t-24.5 43.5t-37.5 29t-48 10.5zM345 573h-127l134 145h165z" />
    <glyph glyph-name="ocircumflex" unicode="&#xf4;" horiz-adv-x="588" 
d="M293 517q58 0 107 -20t85 -55.5t56 -84t20 -105.5t-20 -105t-56 -83t-85 -54.5t-107 -19.5t-106.5 19.5t-84 54.5t-55.5 83t-20 105t20 105.5t55.5 84t84 55.5t106.5 20zM293 389q-26 0 -47.5 -10.5t-37 -29t-24.5 -43.5t-9 -54t9 -53.5t24.5 -42.5t37 -28t47.5 -10
t48 10t37.5 28t24.5 42.5t9 53.5t-9 54t-24.5 43.5t-37.5 29t-48 10.5zM460 574h-113l-54 57l-54 -57h-113l167 192z" />
    <glyph glyph-name="otilde" unicode="&#xf5;" horiz-adv-x="588" 
d="M293 517q58 0 107 -20t85 -55.5t56 -84t20 -105.5t-20 -105t-56 -83t-85 -54.5t-107 -19.5t-106.5 19.5t-84 54.5t-55.5 83t-20 105t20 105.5t55.5 84t84 55.5t106.5 20zM293 389q-26 0 -47.5 -10.5t-37 -29t-24.5 -43.5t-9 -54t9 -53.5t24.5 -42.5t37 -28t47.5 -10
t48 10t37.5 28t24.5 42.5t9 53.5t-9 54t-24.5 43.5t-37.5 29t-48 10.5zM235 734q27 0 45 -11t31 -23.5t24 -23.5t25 -11q17 0 23.5 16.5t6.5 46.5h79q0 -40 -9.5 -69.5t-25.5 -49t-37.5 -29t-45.5 -9.5q-29 0 -45 11t-27.5 23.5t-22 23.5t-26.5 11q-20 0 -27 -16.5t-7 -46.5
h-79q0 41 9.5 71t26 49t37.5 28t45 9z" />
    <glyph glyph-name="odieresis" unicode="&#xf6;" horiz-adv-x="588" 
d="M293 517q58 0 107 -20t85 -55.5t56 -84t20 -105.5t-20 -105t-56 -83t-85 -54.5t-107 -19.5t-106.5 19.5t-84 54.5t-55.5 83t-20 105t20 105.5t55.5 84t84 55.5t106.5 20zM293 389q-26 0 -47.5 -10.5t-37 -29t-24.5 -43.5t-9 -54t9 -53.5t24.5 -42.5t37 -28t47.5 -10
t48 10t37.5 28t24.5 42.5t9 53.5t-9 54t-24.5 43.5t-37.5 29t-48 10.5zM197 719q31 0 50.5 -19.5t19.5 -50.5t-19.5 -50.5t-50.5 -19.5t-50.5 19.5t-19.5 50.5t19.5 50.5t50.5 19.5zM389 719q30 0 50 -19.5t20 -50.5t-20 -50.5t-50 -19.5q-31 0 -50.5 19.5t-19.5 50.5
t19.5 50.5t50.5 19.5z" />
    <glyph glyph-name="divide" unicode="&#xf7;" horiz-adv-x="512" 
d="M255 645q38 0 61.5 -24t23.5 -62q0 -36 -23.5 -60t-61.5 -24q-36 0 -60 24t-24 60q0 38 24 62t60 24zM255 223q38 0 61.5 -24t23.5 -61t-23.5 -61t-61.5 -24q-36 0 -60 24t-24 61t24 61t60 24zM476 283h-440v134h440v-134z" />
    <glyph glyph-name="oslash" unicode="&#xf8;" horiz-adv-x="588" 
d="M293 517q46 0 90 -14l40 74h93l-60 -111q49 -36 77 -91t28 -123q0 -57 -20 -105t-56 -83t-85 -54.5t-107 -19.5q-24 0 -46 3.5t-43 9.5l-39 -73h-93l59 109q-48 35 -76 89.5t-28 123.5q0 57 20 105.5t55.5 84t84 55.5t106.5 20zM293 396q-27 0 -50.5 -11t-40 -30
t-26 -45.5t-9.5 -57.5q0 -57 29 -94l127 234q-13 4 -30 4zM420 252q0 28 -7.5 51.5t-21.5 42.5l-127 -233q13 -3 29 -3q27 0 50.5 10.5t40.5 29.5t26.5 45t9.5 57z" />
    <glyph glyph-name="ugrave" unicode="&#xf9;" 
d="M525 0h-132l-7 55q-20 -28 -56 -46.5t-91 -18.5q-90 0 -136.5 60.5t-46.5 162.5v294h147v-286q0 -42 20 -67.5t58 -25.5q36 0 59 18.5t38 41.5v319h147v-507zM358 573h-127l-172 145h165z" />
    <glyph glyph-name="uacute" unicode="&#xfa;" 
d="M525 0h-132l-7 55q-20 -28 -56 -46.5t-91 -18.5q-90 0 -136.5 60.5t-46.5 162.5v294h147v-286q0 -42 20 -67.5t58 -25.5q36 0 59 18.5t38 41.5v319h147v-507zM342 573h-127l134 145h165z" />
    <glyph glyph-name="ucircumflex" unicode="&#xfb;" 
d="M525 0h-132l-7 55q-20 -28 -56 -46.5t-91 -18.5q-90 0 -136.5 60.5t-46.5 162.5v294h147v-286q0 -42 20 -67.5t58 -25.5q36 0 59 18.5t38 41.5v319h147v-507zM457 574h-113l-54 57l-54 -57h-113l167 192z" />
    <glyph glyph-name="udieresis" unicode="&#xfc;" 
d="M525 0h-132l-7 55q-20 -28 -56 -46.5t-91 -18.5q-90 0 -136.5 60.5t-46.5 162.5v294h147v-286q0 -42 20 -67.5t58 -25.5q36 0 59 18.5t38 41.5v319h147v-507zM194 719q31 0 50.5 -19.5t19.5 -50.5t-19.5 -50.5t-50.5 -19.5t-50.5 19.5t-19.5 50.5t19.5 50.5t50.5 19.5z
M386 719q30 0 50 -19.5t20 -50.5t-20 -50.5t-50 -19.5q-31 0 -50.5 19.5t-19.5 50.5t19.5 50.5t50.5 19.5z" />
    <glyph glyph-name="yacute" unicode="&#xfd;" horiz-adv-x="579" 
d="M176 -230h-168l202 357l-200 380h164l115 -248l116 248h165zM329 573h-127l134 145h165z" />
    <glyph glyph-name="thorn" unicode="&#xfe;" horiz-adv-x="606" 
d="M214 461q21 23 56 39.5t85 16.5q51 0 92.5 -20t71 -55t46 -83.5t16.5 -105.5t-16.5 -105t-46 -83.5t-71 -55t-92.5 -19.5q-54 0 -88 17.5t-53 38.5v-276h-147v990h147v-299zM319 389q-38 0 -63 -18.5t-42 -45.5v-143q17 -28 42 -46t63 -18q51 0 82.5 36t31.5 99
t-31.5 99.5t-82.5 36.5z" />
    <glyph glyph-name="ydieresis" unicode="&#xff;" horiz-adv-x="579" 
d="M176 -230h-168l202 357l-200 380h164l115 -248l116 248h165zM180 719q31 0 50.5 -19.5t19.5 -50.5t-19.5 -50.5t-50.5 -19.5t-50.5 19.5t-19.5 50.5t19.5 50.5t50.5 19.5zM372 719q30 0 50 -19.5t20 -50.5t-20 -50.5t-50 -19.5q-31 0 -50.5 19.5t-19.5 50.5t19.5 50.5
t50.5 19.5z" />
    <glyph glyph-name="Amacron" unicode="&#x100;" horiz-adv-x="724" 
d="M719 0h-168l-48 114h-282l-48 -114h-168l355 748h4zM269 233h186l-93 220zM498 785h-274v98h274v-98z" />
    <glyph glyph-name="amacron" unicode="&#x101;" horiz-adv-x="608" 
d="M253 517q55 0 91.5 -19.5t56.5 -47.5l8 57h132v-507h-132l-8 56q-20 -27 -56.5 -46.5t-91.5 -19.5q-51 0 -92.5 19.5t-71 55t-46 83.5t-16.5 105t16.5 105.5t46 83.5t71 55t92.5 20zM289 389q-51 0 -82.5 -36.5t-31.5 -99.5t31.5 -99t82.5 -36q38 0 62.5 18t41.5 45v144
q-17 27 -41.5 45.5t-62.5 18.5zM432 592h-274v98h274v-98z" />
    <glyph glyph-name="Abreve" unicode="&#x102;" horiz-adv-x="724" 
d="M719 0h-168l-48 114h-282l-48 -114h-168l355 748h4zM269 233h186l-93 220zM527 931q0 -35 -12.5 -64.5t-34.5 -50.5t-52.5 -33t-65.5 -12q-36 0 -66 12t-52.5 33t-35 50.5t-12.5 64.5h100q0 -33 17.5 -55.5t48.5 -22.5q30 0 47.5 22.5t17.5 55.5h100z" />
    <glyph glyph-name="abreve" unicode="&#x103;" horiz-adv-x="608" 
d="M253 517q55 0 91.5 -19.5t56.5 -47.5l8 57h132v-507h-132l-8 56q-20 -27 -56.5 -46.5t-91.5 -19.5q-51 0 -92.5 19.5t-71 55t-46 83.5t-16.5 105t16.5 105.5t46 83.5t71 55t92.5 20zM289 389q-51 0 -82.5 -36.5t-31.5 -99.5t31.5 -99t82.5 -36q38 0 62.5 18t41.5 45v144
q-17 27 -41.5 45.5t-62.5 18.5zM461 737q0 -36 -12.5 -67t-34.5 -53.5t-52.5 -35t-65.5 -12.5q-36 0 -66 12.5t-52.5 35t-35 53.5t-12.5 67h100q0 -32 18.5 -52.5t47.5 -20.5t47 20.5t18 52.5h100z" />
    <glyph glyph-name="Aogonek" unicode="&#x104;" horiz-adv-x="724" 
d="M719 0h-29q-41 -16 -41 -56q0 -26 16.5 -40t39.5 -14q12 0 20.5 3t14.5 7l30 -79q-14 -7 -30 -10.5t-39 -3.5q-29 0 -55.5 8.5t-46.5 25t-31.5 42t-11.5 60.5q0 33 12 57h-17l-48 114h-282l-48 -114h-168l355 748h4zM269 233h186l-93 220z" />
    <glyph glyph-name="aogonek" unicode="&#x105;" horiz-adv-x="608" 
d="M253 517q55 0 91.5 -19.5t56.5 -47.5l8 57h132v-507h-18q-41 -16 -41 -56q0 -26 16.5 -40t39.5 -14q12 0 20.5 3t14.5 7l30 -79q-14 -7 -30 -10.5t-39 -3.5q-29 0 -55.5 8.5t-46.5 25t-31.5 42t-11.5 60.5q0 20 5 37t13 30l-6 46q-20 -27 -56.5 -46.5t-91.5 -19.5
q-51 0 -92.5 19.5t-71 55t-46 83.5t-16.5 105t16.5 105.5t46 83.5t71 55t92.5 20zM289 389q-51 0 -82.5 -36.5t-31.5 -99.5t31.5 -99t82.5 -36q38 0 62.5 18t41.5 45v144q-17 27 -41.5 45.5t-62.5 18.5z" />
    <glyph glyph-name="Cacute" unicode="&#x106;" horiz-adv-x="682" 
d="M407 748q87 0 150 -27.5t116 -82.5l-96 -111q-29 35 -71 58.5t-99 23.5q-51 0 -92 -18t-70 -50t-45 -76.5t-16 -96.5q0 -53 16 -97t45 -76.5t70 -50.5t92 -18q57 0 100 24.5t72 59.5l95 -111q-55 -60 -120.5 -86t-146.5 -26q-83 0 -152 29t-119 80t-78 120.5t-28 151.5
q0 81 28 150.5t78 120.5t119 80t152 29zM459 782h-142l126 120h173z" />
    <glyph glyph-name="cacute" unicode="&#x107;" horiz-adv-x="509" 
d="M289 517q71 0 122.5 -30.5t86.5 -85.5l-105 -78q-15 29 -40 48t-63 19q-28 0 -49.5 -10.5t-36 -29.5t-22 -44t-7.5 -53t7.5 -53t22.5 -43.5t36.5 -29t49.5 -10.5q37 0 63 19t42 48l103 -79q-35 -54 -86.5 -84.5t-122.5 -30.5q-58 0 -106.5 19.5t-83 55t-54 83.5
t-19.5 105t19.5 105.5t54 83.5t82.5 55t106 20zM337 573h-127l134 145h165z" />
    <glyph glyph-name="Ccircumflex" unicode="&#x108;" horiz-adv-x="682" 
d="M407 748q87 0 150 -27.5t116 -82.5l-96 -111q-29 35 -71 58.5t-99 23.5q-51 0 -92 -18t-70 -50t-45 -76.5t-16 -96.5q0 -53 16 -97t45 -76.5t70 -50.5t92 -18q57 0 100 24.5t72 59.5l95 -111q-55 -60 -120.5 -86t-146.5 -26q-83 0 -152 29t-119 80t-78 120.5t-28 151.5
q0 81 28 150.5t78 120.5t119 80t152 29zM575 782h-116l-58 49l-59 -49h-116l175 154z" />
    <glyph glyph-name="ccircumflex" unicode="&#x109;" horiz-adv-x="509" 
d="M289 517q71 0 122.5 -30.5t86.5 -85.5l-105 -78q-15 29 -40 48t-63 19q-28 0 -49.5 -10.5t-36 -29.5t-22 -44t-7.5 -53t7.5 -53t22.5 -43.5t36.5 -29t49.5 -10.5q37 0 63 19t42 48l103 -79q-35 -54 -86.5 -84.5t-122.5 -30.5q-58 0 -106.5 19.5t-83 55t-54 83.5
t-19.5 105t19.5 105.5t54 83.5t82.5 55t106 20zM452 574h-113l-54 57l-54 -57h-113l167 192z" />
    <glyph glyph-name="Cdotaccent" unicode="&#x10a;" horiz-adv-x="682" 
d="M407 748q87 0 150 -27.5t116 -82.5l-96 -111q-29 35 -71 58.5t-99 23.5q-51 0 -92 -18t-70 -50t-45 -76.5t-16 -96.5q0 -53 16 -97t45 -76.5t70 -50.5t92 -18q57 0 100 24.5t72 59.5l95 -111q-55 -60 -120.5 -86t-146.5 -26q-83 0 -152 29t-119 80t-78 120.5t-28 151.5
q0 81 28 150.5t78 120.5t119 80t152 29zM401 936q35 0 57 -22t22 -57q0 -34 -22 -56t-57 -22t-57 22t-22 56q0 35 22 57t57 22z" />
    <glyph glyph-name="cdotaccent" unicode="&#x10b;" horiz-adv-x="509" 
d="M289 517q71 0 122.5 -30.5t86.5 -85.5l-105 -78q-15 29 -40 48t-63 19q-28 0 -49.5 -10.5t-36 -29.5t-22 -44t-7.5 -53t7.5 -53t22.5 -43.5t36.5 -29t49.5 -10.5q37 0 63 19t42 48l103 -79q-35 -54 -86.5 -84.5t-122.5 -30.5q-58 0 -106.5 19.5t-83 55t-54 83.5
t-19.5 105t19.5 105.5t54 83.5t82.5 55t106 20zM284 750q38 0 62.5 -24t24.5 -62t-24.5 -62t-62.5 -24t-62 24t-24 62t24 62t62 24z" />
    <glyph glyph-name="Ccaron" unicode="&#x10c;" horiz-adv-x="682" 
d="M407 748q87 0 150 -27.5t116 -82.5l-96 -111q-29 35 -71 58.5t-99 23.5q-51 0 -92 -18t-70 -50t-45 -76.5t-16 -96.5q0 -53 16 -97t45 -76.5t70 -50.5t92 -18q57 0 100 24.5t72 59.5l95 -111q-55 -60 -120.5 -86t-146.5 -26q-83 0 -152 29t-119 80t-78 120.5t-28 151.5
q0 81 28 150.5t78 120.5t119 80t152 29zM401 771l-175 154h116l59 -49l58 49h116z" />
    <glyph glyph-name="ccaron" unicode="&#x10d;" horiz-adv-x="509" 
d="M289 517q71 0 122.5 -30.5t86.5 -85.5l-105 -78q-15 29 -40 48t-63 19q-28 0 -49.5 -10.5t-36 -29.5t-22 -44t-7.5 -53t7.5 -53t22.5 -43.5t36.5 -29t49.5 -10.5q37 0 63 19t42 48l103 -79q-35 -54 -86.5 -84.5t-122.5 -30.5q-58 0 -106.5 19.5t-83 55t-54 83.5
t-19.5 105t19.5 105.5t54 83.5t82.5 55t106 20zM283 564l-167 192h113l54 -57l54 57h113z" />
    <glyph glyph-name="Dcaron" unicode="&#x10e;" horiz-adv-x="738" 
d="M307 735q94 0 168.5 -24.5t126.5 -72t79.5 -115.5t27.5 -155t-27 -155.5t-79 -115.5t-126.5 -72t-169.5 -25h-234v735h234zM226 595v-456h76q125 0 188.5 59.5t63.5 168.5t-63.5 168.5t-188.5 59.5h-76zM334 761l-175 154h116l59 -49l58 49h116z" />
    <glyph glyph-name="dcaron" unicode="&#x10f;" horiz-adv-x="796" 
d="M541 0h-132l-8 56q-20 -27 -56.5 -46.5t-91.5 -19.5q-51 0 -92.5 19.5t-71 55t-46 83.5t-16.5 105t16.5 105.5t46 83.5t71 55t92.5 20q54 0 88 -17.5t52 -38.5v299h148v-760zM289 389q-51 0 -82.5 -36.5t-31.5 -99.5t31.5 -99t82.5 -36q38 0 62.5 18t41.5 45v144
q-17 27 -41.5 45.5t-62.5 18.5zM667 759q40 0 65.5 -26t25.5 -65q0 -17 -5 -31t-13 -25l-104 -176h-4v317q18 6 35 6z" />
    <glyph glyph-name="Dcroat" unicode="&#x110;" horiz-adv-x="755" 
d="M323 735q94 0 168.5 -24.5t126.5 -72t79.5 -115.5t27.5 -155t-27 -155.5t-79 -115.5t-126.5 -72t-169.5 -25h-234v330h-82v98h82v307h234zM242 595v-167h102v-98h-102v-191h76q125 0 188.5 59.5t63.5 168.5t-63.5 168.5t-188.5 59.5h-76z" />
    <glyph glyph-name="dcroat" unicode="&#x111;" horiz-adv-x="617" 
d="M541 676h79v-98h-79v-578h-132l-8 56q-20 -27 -56.5 -46.5t-91.5 -19.5q-51 0 -92.5 19.5t-71 55t-46 83.5t-16.5 105t16.5 105.5t46 83.5t71 55t92.5 20q54 0 88 -17.5t52 -38.5v117h-112v98h112v84h148v-84zM289 389q-51 0 -82.5 -36.5t-31.5 -99.5t31.5 -99t82.5 -36
q38 0 62.5 18t41.5 45v144q-17 27 -41.5 45.5t-62.5 18.5z" />
    <glyph glyph-name="Emacron" unicode="&#x112;" 
d="M548 596h-322v-159h279v-129h-279v-169h330v-139h-483v735h475v-139zM459 785h-274v98h274v-98z" />
    <glyph glyph-name="emacron" unicode="&#x113;" horiz-adv-x="549" 
d="M282 517q60 0 104 -20.5t73.5 -56t44 -82t14.5 -98.5v-47h-343q2 -49 31.5 -75.5t84.5 -26.5q38 0 66 14.5t45 37.5l101 -82q-40 -46 -91.5 -68.5t-123.5 -22.5q-60 0 -108 19.5t-82 54.5t-52.5 83t-18.5 105t18.5 105.5t52.5 84t80.5 55.5t103.5 20zM277 406
q-45 0 -72.5 -28t-29.5 -72h198q-2 43 -26.5 71.5t-69.5 28.5zM416 592h-274v98h274v-98z" />
    <glyph glyph-name="Ebreve" unicode="&#x114;" 
d="M548 596h-322v-159h279v-129h-279v-169h330v-139h-483v735h475v-139zM487 931q0 -35 -12.5 -64.5t-34.5 -50.5t-52.5 -33t-65.5 -12q-36 0 -66 12t-52.5 33t-35 50.5t-12.5 64.5h100q0 -33 17.5 -55.5t48.5 -22.5q30 0 47.5 22.5t17.5 55.5h100z" />
    <glyph glyph-name="ebreve" unicode="&#x115;" horiz-adv-x="549" 
d="M282 517q60 0 104 -20.5t73.5 -56t44 -82t14.5 -98.5v-47h-343q2 -49 31.5 -75.5t84.5 -26.5q38 0 66 14.5t45 37.5l101 -82q-40 -46 -91.5 -68.5t-123.5 -22.5q-60 0 -108 19.5t-82 54.5t-52.5 83t-18.5 105t18.5 105.5t52.5 84t80.5 55.5t103.5 20zM277 406
q-45 0 -72.5 -28t-29.5 -72h198q-2 43 -26.5 71.5t-69.5 28.5zM444 737q0 -36 -12.5 -67t-34.5 -53.5t-52.5 -35t-65.5 -12.5q-36 0 -66 12.5t-52.5 35t-35 53.5t-12.5 67h100q0 -32 18.5 -52.5t47.5 -20.5t47 20.5t18 52.5h100z" />
    <glyph glyph-name="Edotaccent" unicode="&#x116;" 
d="M548 596h-322v-159h279v-129h-279v-169h330v-139h-483v735h475v-139zM322 926q35 0 57 -22t22 -57q0 -34 -22 -56t-57 -22t-57 22t-22 56q0 35 22 57t57 22z" />
    <glyph glyph-name="edotaccent" unicode="&#x117;" horiz-adv-x="549" 
d="M282 517q60 0 104 -20.5t73.5 -56t44 -82t14.5 -98.5v-47h-343q2 -49 31.5 -75.5t84.5 -26.5q38 0 66 14.5t45 37.5l101 -82q-40 -46 -91.5 -68.5t-123.5 -22.5q-60 0 -108 19.5t-82 54.5t-52.5 83t-18.5 105t18.5 105.5t52.5 84t80.5 55.5t103.5 20zM277 406
q-45 0 -72.5 -28t-29.5 -72h198q-2 43 -26.5 71.5t-69.5 28.5zM278 750q38 0 62.5 -24t24.5 -62t-24.5 -62t-62.5 -24t-62 24t-24 62t24 62t62 24z" />
    <glyph glyph-name="Eogonek" unicode="&#x118;" 
d="M548 596h-322v-159h279v-129h-279v-169h330v-139h-51q-41 -16 -41 -56q0 -26 16.5 -40t39.5 -14q12 0 20.5 3t14.5 7l30 -79q-14 -7 -30 -10.5t-39 -3.5q-29 0 -55.5 8.5t-46.5 25t-31.5 42t-11.5 60.5q0 33 12 57h-310v735h475v-139z" />
    <glyph glyph-name="eogonek" unicode="&#x119;" horiz-adv-x="549" 
d="M282 517q60 0 104 -20.5t73.5 -56t44 -82t14.5 -98.5v-47h-343q2 -49 31.5 -75.5t84.5 -26.5q38 0 66 14.5t45 37.5l101 -82q-44 -50 -101 -72q-22 -16 -22 -46q0 -26 16.5 -40t39.5 -14q12 0 20.5 3t14.5 7l30 -79q-14 -7 -30 -10.5t-39 -3.5q-29 0 -55.5 8.5t-46.5 25
t-31.5 42t-11.5 60.5q0 16 3 28h-2q-60 0 -108 19.5t-82 54.5t-52.5 83t-18.5 105t18.5 105.5t52.5 84t80.5 55.5t103.5 20zM277 406q-45 0 -72.5 -28t-29.5 -72h198q-2 43 -26.5 71.5t-69.5 28.5z" />
    <glyph glyph-name="Ecaron" unicode="&#x11a;" 
d="M548 596h-322v-159h279v-129h-279v-169h330v-139h-483v735h475v-139zM322 761l-175 154h116l59 -49l58 49h116z" />
    <glyph glyph-name="ecaron" unicode="&#x11b;" horiz-adv-x="549" 
d="M282 517q60 0 104 -20.5t73.5 -56t44 -82t14.5 -98.5v-47h-343q2 -49 31.5 -75.5t84.5 -26.5q38 0 66 14.5t45 37.5l101 -82q-40 -46 -91.5 -68.5t-123.5 -22.5q-60 0 -108 19.5t-82 54.5t-52.5 83t-18.5 105t18.5 105.5t52.5 84t80.5 55.5t103.5 20zM277 406
q-45 0 -72.5 -28t-29.5 -72h198q-2 43 -26.5 71.5t-69.5 28.5zM279 564l-167 192h113l54 -57l54 57h113z" />
    <glyph glyph-name="Gcircumflex" unicode="&#x11c;" horiz-adv-x="749" 
d="M407 748q87 0 150 -27.5t116 -82.5l-96 -111q-29 35 -71 58.5t-99 23.5q-51 0 -92 -18t-70 -50t-45 -76.5t-16 -96.5q0 -53 16.5 -97t47 -76.5t73.5 -50.5t96 -18q36 0 66 10t56 27v119h-159v131h311v-325q-107 -101 -274 -101q-85 0 -156 29t-122.5 80t-80 120.5
t-28.5 151.5q0 81 28 150.5t78 120.5t119 80t152 29zM575 782h-116l-58 49l-59 -49h-116l175 154z" />
    <glyph glyph-name="gcircumflex" unicode="&#x11d;" horiz-adv-x="609" 
d="M253 517q55 0 92 -19.5t57 -47.5l7 57h132v-486q0 -61 -19.5 -109.5t-55.5 -82t-87 -51.5t-113 -18q-87 0 -146.5 30t-102.5 79l96 96q28 -32 63.5 -54.5t87.5 -22.5q61 0 95 36.5t35 93.5v39q-18 -21 -52 -38.5t-89 -17.5q-50 0 -91.5 19.5t-71.5 54t-46.5 81.5
t-16.5 103t16.5 103t46.5 81.5t71.5 54t91.5 19.5zM289 389q-51 0 -82 -35t-31 -95t31 -95t82 -35q38 0 63 18.5t42 45.5v132q-17 27 -42 45.5t-63 18.5zM456 574h-113l-54 57l-54 -57h-113l167 192z" />
    <glyph glyph-name="Gbreve" unicode="&#x11e;" horiz-adv-x="749" 
d="M407 748q87 0 150 -27.5t116 -82.5l-96 -111q-29 35 -71 58.5t-99 23.5q-51 0 -92 -18t-70 -50t-45 -76.5t-16 -96.5q0 -53 16.5 -97t47 -76.5t73.5 -50.5t96 -18q36 0 66 10t56 27v119h-159v131h311v-325q-107 -101 -274 -101q-85 0 -156 29t-122.5 80t-80 120.5
t-28.5 151.5q0 81 28 150.5t78 120.5t119 80t152 29zM566 941q0 -35 -12.5 -64.5t-34.5 -50.5t-52.5 -33t-65.5 -12q-36 0 -66 12t-52.5 33t-35 50.5t-12.5 64.5h100q0 -33 17.5 -55.5t48.5 -22.5q30 0 47.5 22.5t17.5 55.5h100z" />
    <glyph glyph-name="gbreve" unicode="&#x11f;" horiz-adv-x="609" 
d="M253 517q55 0 92 -19.5t57 -47.5l7 57h132v-486q0 -61 -19.5 -109.5t-55.5 -82t-87 -51.5t-113 -18q-87 0 -146.5 30t-102.5 79l96 96q28 -32 63.5 -54.5t87.5 -22.5q61 0 95 36.5t35 93.5v39q-18 -21 -52 -38.5t-89 -17.5q-50 0 -91.5 19.5t-71.5 54t-46.5 81.5
t-16.5 103t16.5 103t46.5 81.5t71.5 54t91.5 19.5zM289 389q-51 0 -82 -35t-31 -95t31 -95t82 -35q38 0 63 18.5t42 45.5v132q-17 27 -42 45.5t-63 18.5zM454 737q0 -36 -12.5 -67t-34.5 -53.5t-52.5 -35t-65.5 -12.5q-36 0 -66 12.5t-52.5 35t-35 53.5t-12.5 67h100
q0 -32 18.5 -52.5t47.5 -20.5t47 20.5t18 52.5h100z" />
    <glyph glyph-name="Gdotaccent" unicode="&#x120;" horiz-adv-x="749" 
d="M407 748q87 0 150 -27.5t116 -82.5l-96 -111q-29 35 -71 58.5t-99 23.5q-51 0 -92 -18t-70 -50t-45 -76.5t-16 -96.5q0 -53 16.5 -97t47 -76.5t73.5 -50.5t96 -18q36 0 66 10t56 27v119h-159v131h311v-325q-107 -101 -274 -101q-85 0 -156 29t-122.5 80t-80 120.5
t-28.5 151.5q0 81 28 150.5t78 120.5t119 80t152 29zM401 936q35 0 57 -22t22 -57q0 -34 -22 -56t-57 -22t-57 22t-22 56q0 35 22 57t57 22z" />
    <glyph glyph-name="gdotaccent" unicode="&#x121;" horiz-adv-x="609" 
d="M253 517q55 0 92 -19.5t57 -47.5l7 57h132v-486q0 -61 -19.5 -109.5t-55.5 -82t-87 -51.5t-113 -18q-87 0 -146.5 30t-102.5 79l96 96q28 -32 63.5 -54.5t87.5 -22.5q61 0 95 36.5t35 93.5v39q-18 -21 -52 -38.5t-89 -17.5q-50 0 -91.5 19.5t-71.5 54t-46.5 81.5
t-16.5 103t16.5 103t46.5 81.5t71.5 54t91.5 19.5zM289 389q-51 0 -82 -35t-31 -95t31 -95t82 -35q38 0 63 18.5t42 45.5v132q-17 27 -42 45.5t-63 18.5zM288 750q38 0 62.5 -24t24.5 -62t-24.5 -62t-62.5 -24t-62 24t-24 62t24 62t62 24z" />
    <glyph glyph-name="Gcommaaccent" unicode="&#x122;" horiz-adv-x="749" 
d="M407 748q87 0 150 -27.5t116 -82.5l-96 -111q-29 35 -71 58.5t-99 23.5q-51 0 -92 -18t-70 -50t-45 -76.5t-16 -96.5q0 -53 16.5 -97t47 -76.5t73.5 -50.5t96 -18q36 0 66 10t56 27v119h-159v131h311v-325q-107 -101 -274 -101q-85 0 -156 29t-122.5 80t-80 120.5
t-28.5 151.5q0 81 28 150.5t78 120.5t119 80t152 29zM381 -45q39 0 64.5 -25.5t25.5 -64.5q0 -35 -18 -56l-104 -138h-4v278q18 6 36 6z" />
    <glyph glyph-name="gcommaaccent" unicode="&#x123;" horiz-adv-x="609" 
d="M253 517q55 0 92 -19.5t57 -47.5l7 57h132v-486q0 -61 -19.5 -109.5t-55.5 -82t-87 -51.5t-113 -18q-87 0 -146.5 30t-102.5 79l96 96q28 -32 63.5 -54.5t87.5 -22.5q61 0 95 36.5t35 93.5v39q-18 -21 -52 -38.5t-89 -17.5q-50 0 -91.5 19.5t-71.5 54t-46.5 81.5
t-16.5 103t16.5 103t46.5 81.5t71.5 54t91.5 19.5zM289 389q-51 0 -82 -35t-31 -95t31 -95t82 -35q38 0 63 18.5t42 45.5v132q-17 27 -42 45.5t-63 18.5zM355 571q-8 -3 -16.5 -5t-18.5 -2q-39 0 -65 26t-26 65q0 17 5.5 31t13.5 25l103 177h4v-317z" />
    <glyph glyph-name="Hcircumflex" unicode="&#x124;" horiz-adv-x="750" 
d="M676 0h-152v307h-298v-307h-153v735h153v-289h298v289h152v-735zM549 772h-116l-58 49l-59 -49h-116l175 154z" />
    <glyph glyph-name="hcircumflex" unicode="&#x125;" horiz-adv-x="596" 
d="M214 462q23 24 55.5 39.5t80.5 15.5q93 0 141.5 -61t48.5 -164v-292h-147v284q0 42 -22 68.5t-61 26.5q-35 0 -58.5 -18.5t-37.5 -41.5v-319h-147v760h147v-298zM324 789h-116l-58 49l-59 -49h-116l175 154z" />
    <glyph glyph-name="Hbar" unicode="&#x126;" horiz-adv-x="776" 
d="M689 626h76v-98h-76v-528h-152v299h-298v-299h-152v528h-76v98h76v109h152v-109h298v109h152v-109zM537 431v97h-298v-97h298z" />
    <glyph glyph-name="hbar" unicode="&#x127;" horiz-adv-x="606" 
d="M223 676h113v-98h-113v-116q23 24 55.5 39.5t80.5 15.5q93 0 141.5 -61t48.5 -164v-292h-147v284q0 42 -22 68.5t-61 26.5q-35 0 -58.5 -18.5t-37.5 -41.5v-319h-147v578h-79v98h79v84h147v-84z" />
    <glyph glyph-name="Itilde" unicode="&#x128;" horiz-adv-x="299" 
d="M226 0h-153v735h153v-735zM92 925q27 0 45 -11t31 -23.5t24 -23.5t25 -11q17 0 23.5 17t6.5 46h79q0 -38 -9.5 -66.5t-25.5 -47.5t-37.5 -28t-45.5 -9q-29 0 -45 11t-27.5 23.5t-22 23.5t-26.5 11q-20 0 -27 -16.5t-7 -46.5h-79q0 40 9.5 68.5t26 47t37.5 27t45 8.5z" />
    <glyph glyph-name="itilde" unicode="&#x129;" horiz-adv-x="282" 
d="M84 734q27 0 45 -11t31 -23.5t24 -23.5t25 -11q17 0 23.5 16.5t6.5 46.5h79q0 -40 -9.5 -69.5t-25.5 -49t-37.5 -29t-45.5 -9.5q-29 0 -45 11t-27.5 23.5t-22 23.5t-26.5 11q-20 0 -27 -16.5t-7 -46.5h-79q0 41 9.5 71t26 49t37.5 28t45 9zM214 0h-147v507h147v-507z" />
    <glyph glyph-name="Imacron" unicode="&#x12a;" horiz-adv-x="299" 
d="M226 0h-153v735h153v-735zM287 785h-274v98h274v-98z" />
    <glyph glyph-name="imacron" unicode="&#x12b;" horiz-adv-x="282" 
d="M279 592h-274v98h274v-98zM214 0h-147v507h147v-507z" />
    <glyph glyph-name="Ibreve" unicode="&#x12c;" horiz-adv-x="299" 
d="M226 0h-153v735h153v-735zM316 931q0 -35 -12.5 -64.5t-34.5 -50.5t-52.5 -33t-65.5 -12q-36 0 -66 12t-52.5 33t-35 50.5t-12.5 64.5h100q0 -33 17.5 -55.5t48.5 -22.5q30 0 47.5 22.5t17.5 55.5h100z" />
    <glyph glyph-name="ibreve" unicode="&#x12d;" horiz-adv-x="282" 
d="M307 737q0 -36 -12.5 -67t-34.5 -53.5t-52.5 -35t-65.5 -12.5q-36 0 -66 12.5t-52.5 35t-35 53.5t-12.5 67h100q0 -32 18.5 -52.5t47.5 -20.5t47 20.5t18 52.5h100zM214 0h-147v507h147v-507z" />
    <glyph glyph-name="Iogonek" unicode="&#x12e;" horiz-adv-x="299" 
d="M226 0h-46q-41 -16 -41 -56q0 -26 16.5 -40t39.5 -14q12 0 20.5 3t14.5 7l30 -79q-14 -7 -30 -10.5t-39 -3.5q-29 0 -55.5 8.5t-46.5 25t-31.5 42t-11.5 60.5q0 47 27 79v713h153v-735z" />
    <glyph glyph-name="iogonek" unicode="&#x12f;" horiz-adv-x="282" 
d="M214 0h-33q-41 -16 -41 -56q0 -26 16.5 -40t39.5 -14q12 0 20.5 3t14.5 7l30 -79q-14 -7 -30 -10.5t-39 -3.5q-29 0 -55.5 8.5t-46.5 25t-31.5 42t-11.5 60.5q0 41 20 69v495h147v-507zM141 753q38 0 62 -24t24 -62t-24 -62t-62 -24t-62 24t-24 62t24 62t62 24z" />
    <glyph glyph-name="Idotaccent" unicode="&#x130;" horiz-adv-x="299" 
d="M226 0h-153v735h153v-735zM149 926q35 0 57 -22t22 -57q0 -34 -22 -56t-57 -22t-57 22t-22 56q0 35 22 57t57 22z" />
    <glyph glyph-name="dotlessi" unicode="&#x131;" horiz-adv-x="282" 
d="M214 0h-147v507h147v-507z" />
    <glyph glyph-name="Jcircumflex" unicode="&#x134;" horiz-adv-x="568" 
d="M505 220q0 -52 -18 -95t-50 -73.5t-76 -47.5t-97 -17q-48 0 -93 16.5t-79 49t-54.5 81t-20.5 113.5h148q0 -59 24 -90t70 -31q45 0 69.5 27.5t24.5 74.5v507h152v-515zM600 772h-116l-58 49l-59 -49h-116l175 154z" />
    <glyph glyph-name="jcircumflex" unicode="&#x135;" horiz-adv-x="282" 
d="M214 -28q0 -45 -16 -84t-44.5 -67.5t-68.5 -44.5t-87 -16q-108 0 -177 72l95 98q13 -15 33 -28.5t46 -13.5q33 0 52.5 19.5t19.5 53.5v546h147v-535zM308 574h-113l-54 57l-54 -57h-113l167 192z" />
    <glyph glyph-name="Kcommaaccent" unicode="&#x136;" horiz-adv-x="706" 
d="M432 382l267 -382h-183l-170 246l-157 -246h-116v735h153v-429l244 429h179zM330 -45q39 0 64.5 -25.5t25.5 -64.5q0 -35 -18 -56l-104 -138h-4v278q18 6 36 6z" />
    <glyph glyph-name="kcommaaccent" unicode="&#x137;" horiz-adv-x="578" 
d="M214 246l170 261h176l-155 -209l169 -298h-167l-99 171l-125 -171h-116v760h147v-514zM274 -45q39 0 64.5 -25.5t25.5 -64.5q0 -35 -18 -56l-104 -138h-4v278q18 6 36 6z" />
    <glyph glyph-name="Lacute" unicode="&#x139;" horiz-adv-x="546" 
d="M226 134h313v-134h-466v735h153v-601zM211 772h-142l126 120h173z" />
    <glyph glyph-name="lacute" unicode="&#x13a;" horiz-adv-x="282" 
d="M214 0h-147v760h147v-760zM209 794h-142l126 120h173z" />
    <glyph glyph-name="Lcommaaccent" unicode="&#x13b;" horiz-adv-x="546" 
d="M226 134h313v-134h-466v735h153v-601zM276 -45q39 0 64.5 -25.5t25.5 -64.5q0 -35 -18 -56l-104 -138h-4v278q18 6 36 6z" />
    <glyph glyph-name="lcommaaccent" unicode="&#x13c;" horiz-adv-x="282" 
d="M214 0h-147v760h147v-760zM114 -45q39 0 64.5 -25.5t25.5 -64.5q0 -35 -18 -56l-104 -138h-4v278q18 6 36 6z" />
    <glyph glyph-name="Lcaron" unicode="&#x13d;" horiz-adv-x="546" 
d="M226 134h313v-134h-466v735h153v-601zM455 759q40 0 65.5 -26t25.5 -65q0 -17 -5 -31t-13 -25l-104 -176h-4v317q18 6 35 6z" />
    <glyph glyph-name="lcaron" unicode="&#x13e;" horiz-adv-x="470" 
d="M214 0h-147v760h147v-760zM341 759q40 0 65.5 -26t25.5 -65q0 -17 -5 -31t-13 -25l-104 -176h-4v317q18 6 35 6z" />
    <glyph glyph-name="Ldot" unicode="&#x13f;" horiz-adv-x="546" 
d="M226 134h313v-134h-466v735h153v-601zM422 450q38 0 63.5 -25.5t25.5 -63.5q0 -39 -25.5 -64t-63.5 -25q-39 0 -64.5 25t-25.5 64q0 38 25.5 63.5t64.5 25.5z" />
    <glyph glyph-name="ldot" unicode="&#x140;" horiz-adv-x="504" 
d="M214 0h-147v760h147v-760zM387 346q38 0 63.5 -25.5t25.5 -63.5q0 -39 -25.5 -64t-63.5 -25q-39 0 -64.5 25t-25.5 64q0 38 25.5 63.5t64.5 25.5z" />
    <glyph glyph-name="Lslash" unicode="&#x141;" horiz-adv-x="577" 
d="M256 424l87 35l39 -107l-126 -50v-168h313v-134h-466v241l-70 -28l-38 107l108 43v372h153v-311z" />
    <glyph glyph-name="lslash" unicode="&#x142;" horiz-adv-x="312" 
d="M228 427l69 30l35 -91l-104 -45v-321h-147v259l-65 -28l-36 91l101 43v395h147v-333z" />
    <glyph glyph-name="Nacute" unicode="&#x143;" horiz-adv-x="737" 
d="M664 -13h-4l-434 423v-410h-153v748h4l434 -423v410h153v-748zM426 772h-142l126 120h173z" />
    <glyph glyph-name="nacute" unicode="&#x144;" horiz-adv-x="596" 
d="M350 517q93 0 141.5 -61t48.5 -164v-292h-147v284q0 42 -22 68.5t-61 26.5q-35 0 -58.5 -18.5t-37.5 -41.5v-319h-147v507h132l7 -56q19 28 55 47t89 19zM355 573h-127l134 145h165z" />
    <glyph glyph-name="Ncommaaccent" unicode="&#x145;" horiz-adv-x="737" 
d="M664 -13h-4l-434 423v-410h-153v748h4l434 -423v410h153v-748zM366 -45q39 0 64.5 -25.5t25.5 -64.5q0 -35 -18 -56l-104 -138h-4v278q18 6 36 6z" />
    <glyph glyph-name="ncommaaccent" unicode="&#x146;" horiz-adv-x="596" 
d="M350 517q93 0 141.5 -61t48.5 -164v-292h-147v284q0 42 -22 68.5t-61 26.5q-35 0 -58.5 -18.5t-37.5 -41.5v-319h-147v507h132l7 -56q19 28 55 47t89 19zM274 -45q39 0 64.5 -25.5t25.5 -64.5q0 -35 -18 -56l-104 -138h-4v278q18 6 36 6z" />
    <glyph glyph-name="Ncaron" unicode="&#x147;" horiz-adv-x="737" 
d="M664 -13h-4l-434 423v-410h-153v748h4l434 -423v410h153v-748zM368 761l-175 154h116l59 -49l58 49h116z" />
    <glyph glyph-name="ncaron" unicode="&#x148;" horiz-adv-x="596" 
d="M350 517q93 0 141.5 -61t48.5 -164v-292h-147v284q0 42 -22 68.5t-61 26.5q-35 0 -58.5 -18.5t-37.5 -41.5v-319h-147v507h132l7 -56q19 28 55 47t89 19zM303 564l-167 192h113l54 -57l54 57h113z" />
    <glyph glyph-name="Eng" unicode="&#x14a;" horiz-adv-x="737" 
d="M664 -7q0 -52 -18 -95t-50.5 -73.5t-78 -47.5t-100.5 -17v144q45 0 69.5 26.5t24.5 73.5v128l-285 278v-410h-153v748h4l434 -423v410h153v-742z" />
    <glyph glyph-name="eng" unicode="&#x14b;" horiz-adv-x="596" 
d="M350 517q93 0 141.5 -61t48.5 -164v-320q0 -45 -16.5 -84t-46 -67.5t-70 -44.5t-87.5 -16v130q33 0 53 18.5t20 52.5v323q0 42 -22 68.5t-61 26.5q-35 0 -58.5 -18.5t-37.5 -41.5v-319h-147v507h132l7 -56q19 28 55 47t89 19z" />
    <glyph glyph-name="Omacron" unicode="&#x14c;" horiz-adv-x="814" 
d="M407 748q81 0 150 -28.5t120 -79.5t79.5 -121t28.5 -153q0 -82 -28.5 -151.5t-79.5 -120t-120 -79t-150 -28.5t-150.5 28.5t-119.5 79t-78.5 120t-28.5 151.5q0 83 28.5 153t78.5 121t119.5 79.5t150.5 28.5zM407 609q-49 0 -90 -18t-70.5 -50.5t-46 -77t-16.5 -97.5
t16.5 -97t46 -75.5t70.5 -49.5t90 -18t90 18t70.5 49.5t46 75.5t16.5 97t-16.5 97.5t-46 77t-70.5 50.5t-90 18zM544 795h-274v98h274v-98z" />
    <glyph glyph-name="omacron" unicode="&#x14d;" horiz-adv-x="588" 
d="M293 517q58 0 107 -20t85 -55.5t56 -84t20 -105.5t-20 -105t-56 -83t-85 -54.5t-107 -19.5t-106.5 19.5t-84 54.5t-55.5 83t-20 105t20 105.5t55.5 84t84 55.5t106.5 20zM293 389q-26 0 -47.5 -10.5t-37 -29t-24.5 -43.5t-9 -54t9 -53.5t24.5 -42.5t37 -28t47.5 -10
t48 10t37.5 28t24.5 42.5t9 53.5t-9 54t-24.5 43.5t-37.5 29t-48 10.5zM430 592h-274v98h274v-98z" />
    <glyph glyph-name="Obreve" unicode="&#x14e;" horiz-adv-x="814" 
d="M407 748q81 0 150 -28.5t120 -79.5t79.5 -121t28.5 -153q0 -82 -28.5 -151.5t-79.5 -120t-120 -79t-150 -28.5t-150.5 28.5t-119.5 79t-78.5 120t-28.5 151.5q0 83 28.5 153t78.5 121t119.5 79.5t150.5 28.5zM407 609q-49 0 -90 -18t-70.5 -50.5t-46 -77t-16.5 -97.5
t16.5 -97t46 -75.5t70.5 -49.5t90 -18t90 18t70.5 49.5t46 75.5t16.5 97t-16.5 97.5t-46 77t-70.5 50.5t-90 18zM572 941q0 -35 -12.5 -64.5t-34.5 -50.5t-52.5 -33t-65.5 -12q-36 0 -66 12t-52.5 33t-35 50.5t-12.5 64.5h100q0 -33 17.5 -55.5t48.5 -22.5q30 0 47.5 22.5
t17.5 55.5h100z" />
    <glyph glyph-name="obreve" unicode="&#x14f;" horiz-adv-x="588" 
d="M293 517q58 0 107 -20t85 -55.5t56 -84t20 -105.5t-20 -105t-56 -83t-85 -54.5t-107 -19.5t-106.5 19.5t-84 54.5t-55.5 83t-20 105t20 105.5t55.5 84t84 55.5t106.5 20zM293 389q-26 0 -47.5 -10.5t-37 -29t-24.5 -43.5t-9 -54t9 -53.5t24.5 -42.5t37 -28t47.5 -10
t48 10t37.5 28t24.5 42.5t9 53.5t-9 54t-24.5 43.5t-37.5 29t-48 10.5zM458 737q0 -36 -12.5 -67t-34.5 -53.5t-52.5 -35t-65.5 -12.5q-36 0 -66 12.5t-52.5 35t-35 53.5t-12.5 67h100q0 -32 18.5 -52.5t47.5 -20.5t47 20.5t18 52.5h100z" />
    <glyph glyph-name="Ohungarumlaut" unicode="&#x150;" horiz-adv-x="814" 
d="M407 748q81 0 150 -28.5t120 -79.5t79.5 -121t28.5 -153q0 -82 -28.5 -151.5t-79.5 -120t-120 -79t-150 -28.5t-150.5 28.5t-119.5 79t-78.5 120t-28.5 151.5q0 83 28.5 153t78.5 121t119.5 79.5t150.5 28.5zM407 609q-49 0 -90 -18t-70.5 -50.5t-46 -77t-16.5 -97.5
t16.5 -97t46 -75.5t70.5 -49.5t90 -18t90 18t70.5 49.5t46 75.5t16.5 97t-16.5 97.5t-46 77t-70.5 50.5t-90 18zM361 783h-104l82 121h121zM548 783h-104l82 121h121z" />
    <glyph glyph-name="ohungarumlaut" unicode="&#x151;" horiz-adv-x="588" 
d="M293 517q58 0 107 -20t85 -55.5t56 -84t20 -105.5t-20 -105t-56 -83t-85 -54.5t-107 -19.5t-106.5 19.5t-84 54.5t-55.5 83t-20 105t20 105.5t55.5 84t84 55.5t106.5 20zM293 389q-26 0 -47.5 -10.5t-37 -29t-24.5 -43.5t-9 -54t9 -53.5t24.5 -42.5t37 -28t47.5 -10
t48 10t37.5 28t24.5 42.5t9 53.5t-9 54t-24.5 43.5t-37.5 29t-48 10.5zM245 571h-105l86 150h122zM435 571h-105l86 150h121z" />
    <glyph glyph-name="OE" unicode="&#x152;" horiz-adv-x="1148" 
d="M1106 596h-322v-159h279v-129h-279v-169h330v-139h-483v71q-45 -40 -101.5 -62t-122.5 -22q-81 0 -150.5 28.5t-119.5 79t-78.5 120t-28.5 151.5q0 83 28.5 153t78.5 121t119.5 79.5t150.5 28.5q66 0 122.5 -22.5t101.5 -62.5v72h475v-139zM407 609q-49 0 -90 -18
t-70.5 -50.5t-46 -77t-16.5 -97.5t16.5 -97t46 -76t70.5 -50t90 -18t90 18t70.5 50t46 76t16.5 97t-16.5 97.5t-46 77t-70.5 50.5t-90 18z" />
    <glyph glyph-name="oe" unicode="&#x153;" horiz-adv-x="937" 
d="M669 517q60 0 104 -20.5t73.5 -56t44 -82t14.5 -98.5v-47h-343q2 -49 31.5 -75.5t84.5 -26.5q38 0 66 14.5t45 37.5l101 -82q-40 -46 -91.5 -68.5t-123.5 -22.5q-60 0 -108 19.5t-82 54.5q-36 -35 -85 -54.5t-107 -19.5t-106.5 19.5t-84 54.5t-55.5 83t-20 105t20 105.5
t55.5 84t84 55.5t106.5 20t107 -20.5t85 -55.5q34 35 80.5 55.5t103.5 20.5zM293 389q-26 0 -47.5 -10.5t-37 -29t-24.5 -43.5t-9 -54t9 -53.5t24.5 -42.5t37 -28t47.5 -10t48 10t37.5 28t24.5 42.5t9 53.5t-9 54t-24.5 43.5t-37.5 29t-48 10.5zM664 406q-45 0 -72.5 -28
t-29.5 -72h198q-2 43 -26.5 71.5t-69.5 28.5z" />
    <glyph glyph-name="Racute" unicode="&#x154;" horiz-adv-x="664" 
d="M361 735q53 0 100.5 -16t83 -46t56.5 -74.5t21 -101.5q0 -78 -37.5 -131.5t-97.5 -80.5l171 -285h-178l-154 259h-101v-259h-152v735h288zM225 603v-212h122q54 0 87 27t33 79q0 51 -33 78.5t-87 27.5h-122zM380 772h-142l126 120h173z" />
    <glyph glyph-name="racute" unicode="&#x155;" horiz-adv-x="368" 
d="M353 371h-12q-45 0 -75 -19.5t-52 -47.5v-304h-147v507h131l9 -67q19 31 55.5 54t90.5 23v-146zM283 573h-127l134 145h165z" />
    <glyph glyph-name="Rcommaaccent" unicode="&#x156;" horiz-adv-x="664" 
d="M361 735q53 0 100.5 -16t83 -46t56.5 -74.5t21 -101.5q0 -78 -37.5 -131.5t-97.5 -80.5l171 -285h-178l-154 259h-101v-259h-152v735h288zM225 603v-212h122q54 0 87 27t33 79q0 51 -33 78.5t-87 27.5h-122zM316 -45q39 0 64.5 -25.5t25.5 -64.5q0 -35 -18 -56l-104 -138
h-4v278q18 6 36 6z" />
    <glyph glyph-name="rcommaaccent" unicode="&#x157;" horiz-adv-x="368" 
d="M353 371h-12q-45 0 -75 -19.5t-52 -47.5v-304h-147v507h131l9 -67q19 31 55.5 54t90.5 23v-146zM148 -45q39 0 64.5 -25.5t25.5 -64.5q0 -35 -18 -56l-104 -138h-4v278q18 6 36 6z" />
    <glyph glyph-name="Rcaron" unicode="&#x158;" horiz-adv-x="664" 
d="M361 735q53 0 100.5 -16t83 -46t56.5 -74.5t21 -101.5q0 -78 -37.5 -131.5t-97.5 -80.5l171 -285h-178l-154 259h-101v-259h-152v735h288zM225 603v-212h122q54 0 87 27t33 79q0 51 -33 78.5t-87 27.5h-122zM321 761l-175 154h116l59 -49l58 49h116z" />
    <glyph glyph-name="rcaron" unicode="&#x159;" horiz-adv-x="368" 
d="M353 371h-12q-45 0 -75 -19.5t-52 -47.5v-304h-147v507h131l9 -67q19 31 55.5 54t90.5 23v-146zM230 564l-167 192h113l54 -57l54 57h113z" />
    <glyph glyph-name="Sacute" unicode="&#x15a;" horiz-adv-x="602" 
d="M297 748q79 0 145 -21t112 -56l-79 -126q-34 27 -77 45.5t-102 18.5q-49 0 -77 -19.5t-28 -60.5q0 -16 6 -28t21.5 -22t42.5 -18t68 -16q71 -15 119 -35.5t77 -48t41.5 -62t12.5 -76.5q0 -53 -19 -96.5t-55 -74.5t-87.5 -48t-116.5 -17q-85 0 -157.5 25t-127.5 73l83 127
q37 -39 93.5 -62.5t113.5 -23.5q58 0 89.5 21t31.5 62q0 16 -7 29t-23.5 23.5t-43.5 19t-68 16.5q-71 15 -118.5 37t-76 50.5t-40.5 62.5t-12 75q0 49 18 90.5t52 71.5t82 47t107 17zM358 779h-142l126 120h173z" />
    <glyph glyph-name="sacute" unicode="&#x15b;" horiz-adv-x="471" 
d="M257 517q53 0 100 -14.5t76 -40.5l-55 -104q-22 17 -52.5 30t-68.5 13q-66 0 -66 -40q0 -10 4 -17t14.5 -13t28 -11.5t44.5 -11.5q81 -20 120 -56.5t39 -93.5q0 -76 -59 -122t-162 -46q-58 0 -110 16.5t-84 44.5l56 105q26 -22 61 -36.5t78 -14.5q34 0 53 10.5t19 32.5
q0 20 -17.5 32.5t-68.5 24.5q-83 20 -123 53.5t-40 92.5q0 76 56 121t157 45zM298 573h-127l134 145h165z" />
    <glyph glyph-name="Scircumflex" unicode="&#x15c;" horiz-adv-x="602" 
d="M297 748q79 0 145 -21t112 -56l-79 -126q-34 27 -77 45.5t-102 18.5q-49 0 -77 -19.5t-28 -60.5q0 -16 6 -28t21.5 -22t42.5 -18t68 -16q71 -15 119 -35.5t77 -48t41.5 -62t12.5 -76.5q0 -53 -19 -96.5t-55 -74.5t-87.5 -48t-116.5 -17q-85 0 -157.5 25t-127.5 73l83 127
q37 -39 93.5 -62.5t113.5 -23.5q58 0 89.5 21t31.5 62q0 16 -7 29t-23.5 23.5t-43.5 19t-68 16.5q-71 15 -118.5 37t-76 50.5t-40.5 62.5t-12 75q0 49 18 90.5t52 71.5t82 47t107 17zM473 779h-116l-58 49l-59 -49h-116l175 154z" />
    <glyph glyph-name="scircumflex" unicode="&#x15d;" horiz-adv-x="471" 
d="M257 517q53 0 100 -14.5t76 -40.5l-55 -104q-22 17 -52.5 30t-68.5 13q-66 0 -66 -40q0 -10 4 -17t14.5 -13t28 -11.5t44.5 -11.5q81 -20 120 -56.5t39 -93.5q0 -76 -59 -122t-162 -46q-58 0 -110 16.5t-84 44.5l56 105q26 -22 61 -36.5t78 -14.5q34 0 53 10.5t19 32.5
q0 20 -17.5 32.5t-68.5 24.5q-83 20 -123 53.5t-40 92.5q0 76 56 121t157 45zM412 574h-113l-54 57l-54 -57h-113l167 192z" />
    <glyph glyph-name="Scedilla" unicode="&#x15e;" horiz-adv-x="602" 
d="M297 748q79 0 145 -21t112 -56l-79 -126q-34 27 -77 45.5t-102 18.5q-49 0 -77 -19.5t-28 -60.5q0 -16 6 -28t21.5 -22t42.5 -18t68 -16q71 -15 119 -35.5t77 -48t41.5 -62t12.5 -76.5q0 -50 -17.5 -92t-50 -73t-79.5 -49t-107 -21l-6 -35q43 -3 69.5 -29t26.5 -71
q0 -53 -34.5 -81t-86.5 -28q-29 0 -56 10t-44 32l47 55q10 -11 22.5 -18t28.5 -7q17 0 28 9.5t11 27.5q0 34 -45 37q-14 0 -26.5 -2t-22.5 -5l-3 4l20 102q-70 7 -130.5 31t-107.5 65l83 127q37 -39 93.5 -62.5t113.5 -23.5q58 0 89.5 21t31.5 62q0 16 -7 29t-23.5 23.5
t-43.5 19t-68 16.5q-71 15 -118.5 37t-76 50.5t-40.5 62.5t-12 75q0 49 18 90.5t52 71.5t82 47t107 17z" />
    <glyph glyph-name="scedilla" unicode="&#x15f;" horiz-adv-x="471" 
d="M257 517q53 0 100 -14.5t76 -40.5l-55 -104q-22 17 -52.5 30t-68.5 13q-66 0 -66 -40q0 -10 4 -17t14.5 -13t28 -11.5t44.5 -11.5q81 -20 120 -56.5t39 -93.5q0 -69 -48.5 -113.5t-135.5 -52.5l-7 -39q43 -3 69.5 -29t26.5 -71q0 -53 -34.5 -81t-86.5 -28q-29 0 -56 10
t-44 32l47 55q10 -11 22.5 -18t28.5 -7q17 0 28 9.5t11 27.5q0 34 -45 37q-14 0 -26.5 -2t-22.5 -5l-3 4l20 105q-48 5 -90 20t-69 39l56 105q26 -22 61 -36.5t78 -14.5q34 0 53 10.5t19 32.5q0 20 -17.5 32.5t-68.5 24.5q-83 20 -123 53.5t-40 92.5q0 76 56 121t157 45z
" />
    <glyph glyph-name="Scaron" unicode="&#x160;" horiz-adv-x="602" 
d="M297 748q79 0 145 -21t112 -56l-79 -126q-34 27 -77 45.5t-102 18.5q-49 0 -77 -19.5t-28 -60.5q0 -16 6 -28t21.5 -22t42.5 -18t68 -16q71 -15 119 -35.5t77 -48t41.5 -62t12.5 -76.5q0 -53 -19 -96.5t-55 -74.5t-87.5 -48t-116.5 -17q-85 0 -157.5 25t-127.5 73l83 127
q37 -39 93.5 -62.5t113.5 -23.5q58 0 89.5 21t31.5 62q0 16 -7 29t-23.5 23.5t-43.5 19t-68 16.5q-71 15 -118.5 37t-76 50.5t-40.5 62.5t-12 75q0 49 18 90.5t52 71.5t82 47t107 17zM299 768l-175 154h116l59 -49l58 49h116z" />
    <glyph glyph-name="scaron" unicode="&#x161;" horiz-adv-x="471" 
d="M257 517q53 0 100 -14.5t76 -40.5l-55 -104q-22 17 -52.5 30t-68.5 13q-66 0 -66 -40q0 -10 4 -17t14.5 -13t28 -11.5t44.5 -11.5q81 -20 120 -56.5t39 -93.5q0 -76 -59 -122t-162 -46q-58 0 -110 16.5t-84 44.5l56 105q26 -22 61 -36.5t78 -14.5q34 0 53 10.5t19 32.5
q0 20 -17.5 32.5t-68.5 24.5q-83 20 -123 53.5t-40 92.5q0 76 56 121t157 45zM245 564l-167 192h113l54 -57l54 57h113z" />
    <glyph glyph-name="Tcommaaccent" unicode="&#x162;" horiz-adv-x="662" 
d="M646 601h-239v-601h-152v601h-238v134h629v-134zM304 -45q39 0 64.5 -25.5t25.5 -64.5q0 -35 -18 -56l-104 -138h-4v278q18 6 36 6z" />
    <glyph glyph-name="tcommaaccent" unicode="&#x163;" horiz-adv-x="424" 
d="M248 507h145v-124h-145v-192q0 -33 19 -51t51 -18q23 0 38.5 4.5t26.5 10.5l37 -116q-20 -12 -48.5 -21.5t-67.5 -9.5q-94 0 -148.5 51t-54.5 148v194h-91v124h91v168h147v-168zM191 -45q39 0 64.5 -25.5t25.5 -64.5q0 -35 -18 -56l-104 -138h-4v278q18 6 36 6z" />
    <glyph glyph-name="Tcaron" unicode="&#x164;" horiz-adv-x="662" 
d="M646 601h-239v-601h-152v601h-238v134h629v-134zM330 761l-175 154h116l59 -49l58 49h116z" />
    <glyph glyph-name="tcaron" unicode="&#x165;" horiz-adv-x="615" 
d="M248 507h145v-124h-145v-192q0 -33 19 -51t51 -18q23 0 38.5 4.5t26.5 10.5l37 -116q-20 -12 -48.5 -21.5t-67.5 -9.5q-94 0 -148.5 51t-54.5 148v194h-91v124h91v168h147v-168zM485 759q40 0 65.5 -26t25.5 -65q0 -17 -5 -31t-13 -25l-104 -176h-4v317q18 6 35 6z" />
    <glyph glyph-name="Tbar" unicode="&#x166;" horiz-adv-x="662" 
d="M646 601h-239v-206h140v-98h-140v-297h-152v297h-140v98h140v206h-238v134h629v-134z" />
    <glyph glyph-name="tbar" unicode="&#x167;" horiz-adv-x="424" 
d="M248 507h145v-99h-145v-77h145v-98h-145v-42q0 -33 21.5 -51t59.5 -18q21 0 36 3t25 8l26 -118q-14 -9 -41.5 -17t-62.5 -8q-97 0 -154 51t-57 148v44h-91v98h91v77h-91v99h91v168h147v-168z" />
    <glyph glyph-name="Utilde" unicode="&#x168;" horiz-adv-x="694" 
d="M630 264q0 -63 -18 -114t-54 -87t-89 -56t-122 -20t-122 20t-89 56t-54 87t-18 114v471h153v-461q0 -66 32 -107t98 -41q65 0 98 41t33 107v461h152v-471zM289 925q27 0 45 -11t31 -23.5t24 -23.5t25 -11q17 0 23.5 17t6.5 46h79q0 -38 -9.5 -66.5t-25.5 -47.5t-37.5 -28
t-45.5 -9q-29 0 -45 11t-27.5 23.5t-22 23.5t-26.5 11q-20 0 -27 -16.5t-7 -46.5h-79q0 40 9.5 68.5t26 47t37.5 27t45 8.5z" />
    <glyph glyph-name="utilde" unicode="&#x169;" 
d="M525 0h-132l-7 55q-20 -28 -56 -46.5t-91 -18.5q-90 0 -136.5 60.5t-46.5 162.5v294h147v-286q0 -42 20 -67.5t58 -25.5q36 0 59 18.5t38 41.5v319h147v-507zM232 734q27 0 45 -11t31 -23.5t24 -23.5t25 -11q17 0 23.5 16.5t6.5 46.5h79q0 -40 -9.5 -69.5t-25.5 -49
t-37.5 -29t-45.5 -9.5q-29 0 -45 11t-27.5 23.5t-22 23.5t-26.5 11q-20 0 -27 -16.5t-7 -46.5h-79q0 41 9.5 71t26 49t37.5 28t45 9z" />
    <glyph glyph-name="Umacron" unicode="&#x16a;" horiz-adv-x="694" 
d="M630 264q0 -63 -18 -114t-54 -87t-89 -56t-122 -20t-122 20t-89 56t-54 87t-18 114v471h153v-461q0 -66 32 -107t98 -41q65 0 98 41t33 107v461h152v-471zM483 785h-274v98h274v-98z" />
    <glyph glyph-name="umacron" unicode="&#x16b;" 
d="M525 0h-132l-7 55q-20 -28 -56 -46.5t-91 -18.5q-90 0 -136.5 60.5t-46.5 162.5v294h147v-286q0 -42 20 -67.5t58 -25.5q36 0 59 18.5t38 41.5v319h147v-507zM426 592h-274v98h274v-98z" />
    <glyph glyph-name="Ubreve" unicode="&#x16c;" horiz-adv-x="694" 
d="M630 264q0 -63 -18 -114t-54 -87t-89 -56t-122 -20t-122 20t-89 56t-54 87t-18 114v471h153v-461q0 -66 32 -107t98 -41q65 0 98 41t33 107v461h152v-471zM512 931q0 -35 -12.5 -64.5t-34.5 -50.5t-52.5 -33t-65.5 -12q-36 0 -66 12t-52.5 33t-35 50.5t-12.5 64.5h100
q0 -33 17.5 -55.5t48.5 -22.5q30 0 47.5 22.5t17.5 55.5h100z" />
    <glyph glyph-name="ubreve" unicode="&#x16d;" 
d="M525 0h-132l-7 55q-20 -28 -56 -46.5t-91 -18.5q-90 0 -136.5 60.5t-46.5 162.5v294h147v-286q0 -42 20 -67.5t58 -25.5q36 0 59 18.5t38 41.5v319h147v-507zM455 737q0 -36 -12.5 -67t-34.5 -53.5t-52.5 -35t-65.5 -12.5q-36 0 -66 12.5t-52.5 35t-35 53.5t-12.5 67h100
q0 -32 18.5 -52.5t47.5 -20.5t47 20.5t18 52.5h100z" />
    <glyph glyph-name="Uring" unicode="&#x16e;" horiz-adv-x="694" 
d="M630 264q0 -63 -18 -114t-54 -87t-89 -56t-122 -20t-122 20t-89 56t-54 87t-18 114v471h153v-461q0 -66 32 -107t98 -41q65 0 98 41t33 107v461h152v-471zM348 1010q26 0 48 -9t38.5 -25.5t25.5 -38.5t9 -48q0 -53 -34.5 -86.5t-86.5 -33.5q-54 0 -88.5 33.5t-34.5 86.5
q0 26 9 48t25.5 38.5t39 25.5t49.5 9zM348 933q-18 0 -30.5 -12.5t-12.5 -31.5t12.5 -31t30.5 -12q17 0 29 12t12 31t-12 31.5t-29 12.5z" />
    <glyph glyph-name="uring" unicode="&#x16f;" 
d="M525 0h-132l-7 55q-20 -28 -56 -46.5t-91 -18.5q-90 0 -136.5 60.5t-46.5 162.5v294h147v-286q0 -42 20 -67.5t58 -25.5q36 0 59 18.5t38 41.5v319h147v-507zM291 809q26 0 48 -9t38.5 -25.5t25.5 -38.5t9 -48q0 -53 -34.5 -86.5t-86.5 -33.5q-54 0 -88.5 33.5
t-34.5 86.5q0 26 9 48t25.5 38.5t39 25.5t49.5 9zM291 732q-18 0 -30.5 -12.5t-12.5 -31.5t12.5 -31t30.5 -12q17 0 29 12t12 31t-12 31.5t-29 12.5z" />
    <glyph glyph-name="Uhungarumlaut" unicode="&#x170;" horiz-adv-x="694" 
d="M630 264q0 -63 -18 -114t-54 -87t-89 -56t-122 -20t-122 20t-89 56t-54 87t-18 114v471h153v-461q0 -66 32 -107t98 -41q65 0 98 41t33 107v461h152v-471zM301 773h-104l82 121h121zM488 773h-104l82 121h121z" />
    <glyph glyph-name="uhungarumlaut" unicode="&#x171;" 
d="M525 0h-132l-7 55q-20 -28 -56 -46.5t-91 -18.5q-90 0 -136.5 60.5t-46.5 162.5v294h147v-286q0 -42 20 -67.5t58 -25.5q36 0 59 18.5t38 41.5v319h147v-507zM242 571h-105l86 150h122zM432 571h-105l86 150h121z" />
    <glyph glyph-name="Uogonek" unicode="&#x172;" horiz-adv-x="694" 
d="M630 264q0 -96 -41.5 -162.5t-122.5 -95.5q-31 -16 -31 -52q0 -26 16.5 -40t39.5 -14q12 0 20.5 3t14.5 7l30 -79q-14 -7 -30 -10.5t-39 -3.5q-29 0 -55.5 8.5t-46.5 25t-31.5 42t-11.5 60.5q0 10 1 18t3 16q-69 0 -121.5 20t-88.5 56t-54 87t-18 114v471h153v-461
q0 -66 32 -107t98 -41q65 0 98 41t33 107v461h152v-471z" />
    <glyph glyph-name="uogonek" unicode="&#x173;" 
d="M525 0h-21q-41 -16 -41 -56q0 -26 16.5 -40t39.5 -14q12 0 20.5 3t14.5 7l30 -79q-14 -7 -30 -10.5t-39 -3.5q-29 0 -55.5 8.5t-46.5 25t-31.5 42t-11.5 60.5q0 42 21 71l-5 41q-20 -28 -56 -46.5t-91 -18.5q-90 0 -136.5 60.5t-46.5 162.5v294h147v-286q0 -42 20 -67.5
t58 -25.5q36 0 59 18.5t38 41.5v319h147v-507z" />
    <glyph glyph-name="Wcircumflex" unicode="&#x174;" horiz-adv-x="962" 
d="M656 -11h-4l-171 403l-171 -403h-4l-299 746h168l143 -394l161 394h4l161 -394l143 394h168zM655 772h-116l-58 49l-59 -49h-116l175 154z" />
    <glyph glyph-name="wcircumflex" unicode="&#x175;" horiz-adv-x="774" 
d="M524 -10h-4l-133 250l-133 -250h-4l-243 517h165l94 -240l119 240h4l119 -240l94 240h165zM554 574h-113l-54 57l-54 -57h-113l167 192z" />
    <glyph glyph-name="Ycircumflex" unicode="&#x176;" horiz-adv-x="696" 
d="M425 301v-301h-152v298l-269 437h177l167 -284l167 284h177zM522 772h-116l-58 49l-59 -49h-116l175 154z" />
    <glyph glyph-name="ycircumflex" unicode="&#x177;" horiz-adv-x="579" 
d="M176 -230h-168l202 357l-200 380h164l115 -248l116 248h165zM443 574h-113l-54 57l-54 -57h-113l167 192z" />
    <glyph glyph-name="Ydieresis" unicode="&#x178;" horiz-adv-x="696" 
d="M425 301v-301h-152v298l-269 437h177l167 -284l167 284h177zM252 906q31 0 50.5 -19.5t19.5 -50.5q0 -30 -19.5 -50t-50.5 -20t-50.5 20t-19.5 50q0 31 19.5 50.5t50.5 19.5zM444 906q30 0 50 -19.5t20 -50.5q0 -30 -20 -50t-50 -20q-31 0 -50.5 20t-19.5 50
q0 31 19.5 50.5t50.5 19.5z" />
    <glyph glyph-name="Zacute" unicode="&#x179;" horiz-adv-x="594" 
d="M559 731l-308 -598h319v-133h-551v4l309 598h-294v133h525v-4zM352 772h-142l126 120h173z" />
    <glyph glyph-name="zacute" unicode="&#x17a;" horiz-adv-x="479" 
d="M455 503l-210 -379h209v-124h-432v4l210 379h-197v124h420v-4zM291 573h-127l134 145h165z" />
    <glyph glyph-name="Zdotaccent" unicode="&#x17b;" horiz-adv-x="594" 
d="M559 731l-308 -598h319v-133h-551v4l309 598h-294v133h525v-4zM294 926q35 0 57 -22t22 -57q0 -34 -22 -56t-57 -22t-57 22t-22 56q0 35 22 57t57 22z" />
    <glyph glyph-name="zdotaccent" unicode="&#x17c;" horiz-adv-x="479" 
d="M455 503l-210 -379h209v-124h-432v4l210 379h-197v124h420v-4zM237 750q38 0 62.5 -24t24.5 -62t-24.5 -62t-62.5 -24t-62 24t-24 62t24 62t62 24z" />
    <glyph glyph-name="Zcaron" unicode="&#x17d;" horiz-adv-x="594" 
d="M559 731l-308 -598h319v-133h-551v4l309 598h-294v133h525v-4zM294 761l-175 154h116l59 -49l58 49h116z" />
    <glyph glyph-name="zcaron" unicode="&#x17e;" horiz-adv-x="479" 
d="M455 503l-210 -379h209v-124h-432v4l210 379h-197v124h420v-4zM238 564l-167 192h113l54 -57l54 57h113z" />
    <glyph glyph-name="florin" unicode="&#x192;" horiz-adv-x="421" 
d="M334 757q38 0 67.5 -8.5t50.5 -23.5l-52 -117q-10 9 -24 15t-33 6q-30 0 -45.5 -19.5t-19.5 -54.5l-5 -48h112l-13 -124h-113l-49 -443q-5 -40 -20.5 -73t-41.5 -57t-61 -37t-78 -13q-38 0 -67.5 8.5t-50.5 23.5l52 117q10 -9 24 -15t33 -6q30 0 45.5 19.5t18.5 54.5
l47 421h-74l13 124h75l8 70q4 40 20 73t42 57t61 37t78 13z" />
    <glyph glyph-name="Aringacute" unicode="&#x1fa;" horiz-adv-x="724" 
d="M719 0h-168l-48 114h-282l-48 -114h-168l355 748h4zM428 986q25 -16 40 -42.5t15 -59.5q0 -53 -34.5 -86.5t-86.5 -33.5q-54 0 -88.5 33.5t-34.5 86.5q0 31 13 56.5t36 42.5l106 114h165zM269 233h186l-93 220zM362 928q-18 0 -30.5 -12.5t-12.5 -31.5t12.5 -31t30.5 -12
q17 0 29 12t12 31t-12 31.5t-29 12.5z" />
    <glyph glyph-name="aringacute" unicode="&#x1fb;" horiz-adv-x="608" 
d="M253 517q55 0 91.5 -19.5t56.5 -47.5l8 57h132v-507h-132l-8 56q-20 -27 -56.5 -46.5t-91.5 -19.5q-51 0 -92.5 19.5t-71 55t-46 83.5t-16.5 105t16.5 105.5t46 83.5t71 55t92.5 20zM363 775q23 -16 36.5 -41.5t13.5 -57.5q0 -53 -34.5 -86.5t-86.5 -33.5
q-54 0 -88.5 33.5t-34.5 86.5q0 50 33 85l126 120h173zM289 389q-51 0 -82.5 -36.5t-31.5 -99.5t31.5 -99t82.5 -36q38 0 62.5 18t41.5 45v144q-17 27 -41.5 45.5t-62.5 18.5zM292 720q-18 0 -30.5 -12.5t-12.5 -31.5t12.5 -31t30.5 -12q17 0 29 12t12 31t-12 31.5t-29 12.5
z" />
    <glyph glyph-name="AEacute" unicode="&#x1fc;" horiz-adv-x="890" 
d="M846 596h-375l64 -159h269v-129h-216l70 -169h196v-139h-305l-47 116h-280l-47 -116h-170l326 735h515v-139zM268 231h188l-94 235zM574 772h-142l126 120h173z" />
    <glyph glyph-name="aeacute" unicode="&#x1fd;" horiz-adv-x="947" 
d="M684 517q58 0 101.5 -20t72.5 -55.5t43.5 -82.5t14.5 -101v-44h-354q8 -48 37.5 -75.5t89.5 -27.5q37 0 67 14.5t49 38.5l96 -83q-39 -46 -90.5 -68.5t-119.5 -22.5q-55 0 -94.5 18.5t-59.5 46.5l-6 -55h-122l-8 56q-20 -27 -56.5 -46.5t-91.5 -19.5q-51 0 -92.5 19.5
t-71 55t-46 83.5t-16.5 105t16.5 105.5t46 83.5t71 55t92.5 20q55 0 91.5 -19.5t56.5 -47.5l8 57h124l7 -56q21 27 57 46.5t87 19.5zM289 389q-51 0 -82.5 -36.5t-31.5 -99.5t31.5 -99t82.5 -36q38 0 62.5 18t41.5 45v144q-17 27 -41.5 45.5t-62.5 18.5zM667 406
q-42 0 -71 -25.5t-35 -74.5h210q-2 43 -29 71.5t-75 28.5zM523 573h-127l134 145h165z" />
    <glyph glyph-name="Oslashacute" unicode="&#x1fe;" horiz-adv-x="814" 
d="M407 748q70 0 133 -23l50 90h130l-79 -144q67 -51 105.5 -129.5t38.5 -175.5q0 -82 -28.5 -151.5t-79.5 -120t-120 -79t-150 -28.5q-35 0 -68.5 5.5t-63.5 15.5l-49 -88h-131l79 142q-67 51 -105.5 129t-38.5 175q0 83 28.5 153t78.5 121t119.5 79.5t150.5 28.5zM407 609
q-49 0 -90 -18t-70.5 -50.5t-46 -77t-16.5 -97.5t16.5 -97t45.5 -76l225 407q-30 9 -64 9zM630 366q0 53 -16.5 97.5t-45.5 76.5l-224 -406q32 -8 63 -8q49 0 90 18t70.5 49.5t46 75.5t16.5 97zM466 782h-142l126 120h173z" />
    <glyph glyph-name="oslashacute" unicode="&#x1ff;" horiz-adv-x="588" 
d="M293 517q46 0 90 -14l40 74h93l-60 -111q49 -36 77 -91t28 -123q0 -57 -20 -105t-56 -83t-85 -54.5t-107 -19.5q-24 0 -46 3.5t-43 9.5l-39 -73h-93l59 109q-48 35 -76 89.5t-28 123.5q0 57 20 105.5t55.5 84t84 55.5t106.5 20zM330 573h-127l134 145h165zM293 396
q-27 0 -50.5 -11t-40 -30t-26 -45.5t-9.5 -57.5q0 -57 29 -94l127 234q-13 4 -30 4zM420 252q0 28 -7.5 51.5t-21.5 42.5l-127 -233q13 -3 29 -3q27 0 50.5 10.5t40.5 29.5t26.5 45t9.5 57z" />
    <glyph glyph-name="Scommaaccent" unicode="&#x218;" horiz-adv-x="602" 
d="M297 748q79 0 145 -21t112 -56l-79 -126q-34 27 -77 45.5t-102 18.5q-49 0 -77 -19.5t-28 -60.5q0 -16 6 -28t21.5 -22t42.5 -18t68 -16q71 -15 119 -35.5t77 -48t41.5 -62t12.5 -76.5q0 -53 -19 -96.5t-55 -74.5t-87.5 -48t-116.5 -17q-85 0 -157.5 25t-127.5 73l83 127
q37 -39 93.5 -62.5t113.5 -23.5q58 0 89.5 21t31.5 62q0 16 -7 29t-23.5 23.5t-43.5 19t-68 16.5q-71 15 -118.5 37t-76 50.5t-40.5 62.5t-12 75q0 49 18 90.5t52 71.5t82 47t107 17zM294 -45q39 0 64.5 -25.5t25.5 -64.5q0 -35 -18 -56l-104 -138h-4v278q18 6 36 6z" />
    <glyph glyph-name="scommaaccent" unicode="&#x219;" horiz-adv-x="471" 
d="M257 517q53 0 100 -14.5t76 -40.5l-55 -104q-22 17 -52.5 30t-68.5 13q-66 0 -66 -40q0 -10 4 -17t14.5 -13t28 -11.5t44.5 -11.5q81 -20 120 -56.5t39 -93.5q0 -76 -59 -122t-162 -46q-58 0 -110 16.5t-84 44.5l56 105q26 -22 61 -36.5t78 -14.5q34 0 53 10.5t19 32.5
q0 20 -17.5 32.5t-68.5 24.5q-83 20 -123 53.5t-40 92.5q0 76 56 121t157 45zM207 -45q39 0 64.5 -25.5t25.5 -64.5q0 -35 -18 -56l-104 -138h-4v278q18 6 36 6z" />
    <glyph glyph-name="circumflex" unicode="&#x2c6;" horiz-adv-x="368" 
d="M351 574h-113l-54 57l-54 -57h-113l167 192z" />
    <glyph glyph-name="caron" unicode="&#x2c7;" horiz-adv-x="368" 
d="M184 564l-167 192h113l54 -57l54 57h113z" />
    <glyph glyph-name="breve" unicode="&#x2d8;" horiz-adv-x="365" 
d="M348 737q0 -36 -12.5 -67t-34.5 -53.5t-52.5 -35t-65.5 -12.5q-36 0 -66 12.5t-52.5 35t-35 53.5t-12.5 67h100q0 -32 18.5 -52.5t47.5 -20.5t47 20.5t18 52.5h100v0z" />
    <glyph glyph-name="dotaccent" unicode="&#x2d9;" horiz-adv-x="207" 
d="M103 750q38 0 62.5 -24t24.5 -62t-24.5 -62t-62.5 -24t-62 24t-24 62t24 62t62 24z" />
    <glyph glyph-name="ring" unicode="&#x2da;" horiz-adv-x="279" 
d="M140 809q26 0 48 -9t38.5 -25.5t25.5 -38.5t9 -48q0 -53 -34.5 -86.5t-86.5 -33.5q-54 0 -88.5 33.5t-34.5 86.5q0 26 9 48t25.5 38.5t39 25.5t49.5 9zM140 732q-18 0 -30.5 -12.5t-12.5 -31.5t12.5 -31t30.5 -12q17 0 29 12t12 31t-12 31.5t-29 12.5z" />
    <glyph glyph-name="ogonek" unicode="&#x2db;" horiz-adv-x="248" 
d="M154 0q-41 -16 -41 -56q0 -26 16.5 -40t39.5 -14q12 0 20.5 3t14.5 7l30 -79q-14 -7 -30 -10.5t-39 -3.5q-29 0 -55.5 8.5t-46.5 25t-31.5 42t-11.5 60.5q0 50 27.5 79.5t64.5 43.5z" />
    <glyph glyph-name="tilde" unicode="&#x2dc;" horiz-adv-x="387" 
d="M135 734q27 0 45 -11t31 -23.5t24 -23.5t25 -11q17 0 23.5 16.5t6.5 46.5h79q0 -40 -9.5 -69.5t-25.5 -49t-37.5 -29t-45.5 -9.5q-29 0 -45 11t-27.5 23.5t-22 23.5t-26.5 11q-20 0 -27 -16.5t-7 -46.5h-79q0 41 9.5 71t26 49t37.5 28t45 9z" />
    <glyph glyph-name="hungarumlaut" unicode="&#x2dd;" horiz-adv-x="426" 
d="M151 571h-105l86 150h122zM341 571h-105l86 150h121z" />
    <glyph glyph-name="Omega" unicode="&#x3a9;" horiz-adv-x="858" 
d="M431 750q78 0 140.5 -26t106.5 -71.5t68 -108.5t24 -137q0 -47 -9 -84.5t-22.5 -67.5t-30 -53t-30.5 -41h145v-161h-345v153q26 23 49 49t40 56.5t26.5 65.5t9.5 76q0 87 -45.5 138t-126.5 51t-127 -51t-46 -138q0 -41 10 -76t27 -65.5t40 -56.5t49 -49v-153h-345v161
h145q-14 18 -30.5 41t-30.5 53t-23 67.5t-9 84.5q0 74 24 137t68.5 108.5t107 71.5t140.5 26z" />
    <glyph glyph-name="pi" unicode="&#x3c0;" horiz-adv-x="752" 
d="M745 509q-9 -29 -22.5 -54.5t-34.5 -45t-51 -31t-71 -11.5h-8l-23 -185q-7 -49 26 -49q14 0 26.5 6t23.5 14l51 -105q-35 -26 -72 -41t-90 -15q-39 0 -61.5 12.5t-33 33.5t-12 48.5t1.5 56.5l29 224h-81l-28 -217q-8 -56 -19.5 -90t-24.5 -60h-148q23 48 38.5 88t21.5 85
l26 194h-16q-38 0 -63.5 -17.5t-43.5 -40.5l-69 102q21 21 41 37.5t44 28.5t54.5 18t72.5 6h261q34 0 57 5t38.5 14.5t25.5 23.5t19 32z" />
    <glyph glyph-name="Wgrave" unicode="&#x1e80;" horiz-adv-x="962" 
d="M656 -11h-4l-171 403l-171 -403h-4l-299 746h168l143 -394l161 394h4l161 -394l143 394h168zM550 772h-142l-157 120h173z" />
    <glyph glyph-name="wgrave" unicode="&#x1e81;" horiz-adv-x="774" 
d="M524 -10h-4l-133 250l-133 -250h-4l-243 517h165l94 -240l119 240h4l119 -240l94 240h165zM455 573h-127l-172 145h165z" />
    <glyph glyph-name="Wacute" unicode="&#x1e82;" horiz-adv-x="962" 
d="M656 -11h-4l-171 403l-171 -403h-4l-299 746h168l143 -394l161 394h4l161 -394l143 394h168zM539 772h-142l126 120h173z" />
    <glyph glyph-name="wacute" unicode="&#x1e83;" horiz-adv-x="774" 
d="M524 -10h-4l-133 250l-133 -250h-4l-243 517h165l94 -240l119 240h4l119 -240l94 240h165zM439 573h-127l134 145h165z" />
    <glyph glyph-name="Wdieresis" unicode="&#x1e84;" horiz-adv-x="962" 
d="M656 -11h-4l-171 403l-171 -403h-4l-299 746h168l143 -394l161 394h4l161 -394l143 394h168zM385 906q31 0 50.5 -19.5t19.5 -50.5q0 -30 -19.5 -50t-50.5 -20t-50.5 20t-19.5 50q0 31 19.5 50.5t50.5 19.5zM577 906q30 0 50 -19.5t20 -50.5q0 -30 -20 -50t-50 -20
q-31 0 -50.5 20t-19.5 50q0 31 19.5 50.5t50.5 19.5z" />
    <glyph glyph-name="wdieresis" unicode="&#x1e85;" horiz-adv-x="774" 
d="M524 -10h-4l-133 250l-133 -250h-4l-243 517h165l94 -240l119 240h4l119 -240l94 240h165zM291 719q31 0 50.5 -19.5t19.5 -50.5t-19.5 -50.5t-50.5 -19.5t-50.5 19.5t-19.5 50.5t19.5 50.5t50.5 19.5zM483 719q30 0 50 -19.5t20 -50.5t-20 -50.5t-50 -19.5
q-31 0 -50.5 19.5t-19.5 50.5t19.5 50.5t50.5 19.5z" />
    <glyph glyph-name="Ygrave" unicode="&#x1ef2;" horiz-adv-x="696" 
d="M425 301v-301h-152v298l-269 437h177l167 -284l167 284h177zM417 772h-142l-157 120h173z" />
    <glyph glyph-name="ygrave" unicode="&#x1ef3;" horiz-adv-x="579" 
d="M176 -230h-168l202 357l-200 380h164l115 -248l116 248h165zM345 573h-127l-172 145h165z" />
    <glyph glyph-name="endash" unicode="&#x2013;" horiz-adv-x="550" 
d="M512 191h-475v135h475v-135z" />
    <glyph glyph-name="emdash" unicode="&#x2014;" horiz-adv-x="794" 
d="M757 191h-720v135h720v-135z" />
    <glyph glyph-name="quoteleft" unicode="&#x2018;" horiz-adv-x="211" 
d="M163 486q-8 -3 -16.5 -5t-18.5 -2q-39 0 -65 26t-26 65q0 17 5.5 31t13.5 25l103 177h4v-317z" />
    <glyph glyph-name="quoteright" unicode="&#x2019;" horiz-adv-x="211" 
d="M82 759q40 0 65.5 -26t25.5 -65q0 -17 -5 -31t-13 -25l-104 -176h-4v317q18 6 35 6z" />
    <glyph glyph-name="quotesinglbase" unicode="&#x201a;" horiz-adv-x="211" 
d="M82 157q40 0 65.5 -26t25.5 -65q0 -17 -5 -31t-13 -25l-104 -176h-4v316q9 3 17 5t18 2z" />
    <glyph glyph-name="quotedblleft" unicode="&#x201c;" horiz-adv-x="411" 
d="M163 486q-8 -3 -16.5 -5t-18.5 -2q-39 0 -65 26t-26 65q0 17 5.5 31t13.5 25l103 177h4v-317zM363 486q-8 -3 -16.5 -5t-18.5 -2q-39 0 -65 26t-26 65q0 17 5.5 31t13.5 25l103 177h4v-317z" />
    <glyph glyph-name="quotedblright" unicode="&#x201d;" horiz-adv-x="411" 
d="M82 759q40 0 65.5 -26t25.5 -65q0 -17 -5 -31t-13 -25l-104 -176h-4v317q18 6 35 6zM282 759q40 0 65.5 -26t25.5 -65q0 -17 -5 -31t-13 -25l-104 -176h-4v317q18 6 35 6z" />
    <glyph glyph-name="quotedblbase" unicode="&#x201e;" horiz-adv-x="430" 
d="M82 157q40 0 65.5 -26t25.5 -65q0 -17 -5 -31t-13 -25l-104 -176h-4v316q9 3 17 5t18 2zM301 157q40 0 65.5 -26t25.5 -65q0 -17 -5 -31t-13 -25l-104 -176h-4v316q9 3 17 5t18 2z" />
    <glyph glyph-name="dagger" unicode="&#x2020;" horiz-adv-x="495" 
d="M319 569h152v-131h-152v-438h-144v438h-151v131h151v166h144v-166z" />
    <glyph glyph-name="daggerdbl" unicode="&#x2021;" horiz-adv-x="497" 
d="M321 569h152v-131h-152v-141h150v-131h-150v-166h-145v166h-152v131h152v141h-150v131h150v166h145v-166z" />
    <glyph glyph-name="bullet" unicode="&#x2022;" horiz-adv-x="295" 
d="M147 376q25 0 47 -9t37.5 -24.5t24.5 -37.5t9 -47t-9 -46.5t-24.5 -37t-37.5 -24.5t-47 -9q-51 0 -84 33t-33 84q0 25 9 47t24.5 37.5t37 24.5t46.5 9z" />
    <glyph glyph-name="ellipsis" unicode="&#x2026;" horiz-adv-x="775" 
d="M127 171q39 0 65 -25t26 -65t-26 -65.5t-65 -25.5q-40 0 -65.5 25.5t-25.5 65.5q0 39 25.5 64.5t65.5 25.5zM388 171q39 0 64.5 -25t25.5 -65t-25.5 -65.5t-64.5 -25.5q-40 0 -65.5 25.5t-25.5 65.5q0 39 25.5 64.5t65.5 25.5zM649 171q39 0 64.5 -25t25.5 -65
t-25.5 -65.5t-64.5 -25.5q-40 0 -65.5 25.5t-25.5 65.5q0 39 25.5 64.5t65.5 25.5z" />
    <glyph glyph-name="perthousand" unicode="&#x2030;" horiz-adv-x="1313" 
d="M282 0h-141l473 735h140zM208 747q40 0 74 -14t59 -39.5t39 -60t14 -74.5q0 -41 -14 -75t-39 -58.5t-59 -38.5t-74 -14q-41 0 -75 14t-58.5 38.5t-38.5 58.5t-14 75q0 40 14 74.5t38.5 60t58.5 39.5t75 14zM208 643q-33 0 -54.5 -23.5t-21.5 -60.5q0 -35 21.5 -58.5
t54.5 -23.5q32 0 53.5 23.5t21.5 58.5q0 37 -21.5 60.5t-53.5 23.5zM687 361q40 0 74 -14t59 -39.5t39 -60t14 -74.5q0 -41 -14 -75t-39 -58.5t-59 -38.5t-74 -14t-74 14t-59 38.5t-39 58.5t-14 75q0 40 14 74.5t39 60t59 39.5t74 14zM687 257q-33 0 -54.5 -23.5
t-21.5 -60.5q0 -35 21.5 -58.5t54.5 -23.5t54.5 23.5t21.5 58.5q0 37 -21.5 60.5t-54.5 23.5zM1098 361q40 0 74 -14t59 -39.5t39 -60t14 -74.5q0 -41 -14 -75t-39 -58.5t-59 -38.5t-74 -14q-41 0 -75 14t-58.5 38.5t-38.5 58.5t-14 75q0 40 14 74.5t38.5 60t58.5 39.5
t75 14zM1098 257q-33 0 -54.5 -23.5t-21.5 -60.5q0 -35 21.5 -58.5t54.5 -23.5t54.5 23.5t21.5 58.5q0 37 -21.5 60.5t-54.5 23.5z" />
    <glyph glyph-name="guilsinglleft" unicode="&#x2039;" horiz-adv-x="394" 
d="M185 256l194 -202h-174l-190 200v4l190 200h174z" />
    <glyph glyph-name="guilsinglright" unicode="&#x203a;" horiz-adv-x="394" 
d="M379 258v-4l-190 -200h-174l194 202l-194 202h174z" />
    <glyph glyph-name="fraction" unicode="&#x2044;" horiz-adv-x="237" 
d="M3 0h-133l364 735h133z" />
    <glyph glyph-name="uni2070" unicode="&#x2070;" horiz-adv-x="382" 
d="M199 820q75 0 118.5 -58.5t43.5 -157.5q0 -50 -11.5 -90t-32.5 -68.5t-51 -44t-67 -15.5q-76 0 -119.5 59t-43.5 159q0 99 43.5 157.5t119.5 58.5zM199 728q-30 0 -42.5 -33.5t-12.5 -90.5t12.5 -91t42.5 -34q29 0 42 34t13 91t-13 90.5t-42 33.5z" />
    <glyph glyph-name="uni2074" unicode="&#x2074;" horiz-adv-x="377" 
d="M324 517h44v-76h-44v-47h-105v47h-210v2l313 379h2v-305zM152 512h78v95z" />
    <glyph glyph-name="uni2075" unicode="&#x2075;" horiz-adv-x="354" 
d="M312 720h-151v-61q5 2 12 3t15 1q31 0 58.5 -7.5t48 -24.5t32.5 -43.5t12 -64.5q0 -62 -41 -99.5t-112 -37.5q-55 0 -95 23t-57 75l90 43q4 -25 19.5 -36t35.5 -11q23 0 38 13t15 36q0 21 -15 34.5t-40 13.5q-18 0 -30 -6t-18 -12l-74 32v222h257v-93z" />
    <glyph glyph-name="uni2076" unicode="&#x2076;" horiz-adv-x="365" 
d="M219 670q27 -5 50 -17t40.5 -30.5t27 -42t9.5 -51.5q0 -32 -12.5 -58t-34 -45t-50 -29.5t-60.5 -10.5t-60 10.5t-49 29.5t-33.5 45t-12.5 58q0 44 24 79l133 205h120zM189 586q-22 0 -36.5 -15t-14.5 -42q0 -26 14.5 -40t36.5 -14q23 0 38 14t15 40q0 27 -15 42t-38 15z
" />
    <glyph glyph-name="uni2077" unicode="&#x2077;" horiz-adv-x="355" 
d="M353 809l-206 -415h-114l165 323h-166v96h321v-4z" />
    <glyph glyph-name="uni2078" unicode="&#x2078;" horiz-adv-x="365" 
d="M189 821q29 0 55 -9.5t45.5 -26t30.5 -39.5t11 -50q0 -26 -11 -46t-30 -35q26 -18 41 -42t15 -52q0 -30 -12.5 -55t-34 -42.5t-50 -27.5t-60.5 -10t-60 10t-49 27.5t-33.5 42.5t-12.5 55q0 28 14.5 52t40.5 41q-19 16 -30 36t-11 46q0 27 11 50t30.5 39.5t45 26t54.5 9.5
zM189 569q-22 0 -37 -14t-15 -36q0 -21 15 -34t37 -13q23 0 38 13t15 34q0 22 -15 36t-38 14zM189 737q-20 0 -33.5 -13.5t-13.5 -33.5t13.5 -32t33.5 -12q21 0 34.5 12t13.5 32t-13.5 33.5t-34.5 13.5z" />
    <glyph glyph-name="uni2079" unicode="&#x2079;" horiz-adv-x="365" 
d="M191 821q32 0 60 -10.5t49 -29.5t33.5 -45.5t12.5 -57.5q0 -44 -24 -79l-133 -205h-120l92 142q-27 4 -50 16.5t-40.5 31t-27 42.5t-9.5 52q0 31 12.5 57.5t34 45.5t50 29.5t60.5 10.5zM191 732q-23 0 -38 -14t-15 -40q0 -27 15 -42t38 -15q22 0 36.5 15t14.5 42
q0 26 -14.5 40t-36.5 14z" />
    <glyph glyph-name="uni207F" unicode="&#x207f;" horiz-adv-x="431" 
d="M256 751q66 0 99.5 -43t33.5 -117v-203h-118v197q0 25 -12 40.5t-35 15.5q-22 0 -36 -10.5t-22 -24.5v-218h-117v356h105l5 -36q13 18 37.5 30.5t59.5 12.5z" />
    <glyph glyph-name="Euro" unicode="&#x20ac;" horiz-adv-x="665" 
d="M432 234h-162q20 -56 58 -86t90 -30q49 0 82.5 21.5t56.5 52.5l90 -105q-43 -49 -98.5 -74.5t-130.5 -25.5q-114 0 -195 64.5t-112 182.5h-81v94h66q-1 10 -1 19.5v20.5v22t1 22h-66v94h82q31 115 111.5 178.5t193.5 63.5q75 0 130.5 -26t97.5 -74l-90 -105
q-23 31 -55.5 52t-82.5 21q-51 0 -88 -28.5t-57 -81.5h160v-94h-180q-1 -11 -1.5 -22t-0.5 -22v-20.5t1 -19.5h181v-94z" />
    <glyph glyph-name="afii61289" unicode="&#x2113;" horiz-adv-x="584" 
d="M346 750q36 0 67.5 -10.5t55 -31.5t37 -52t13.5 -72q0 -52 -20 -100t-51 -91.5t-69.5 -82.5t-75.5 -72v-65q0 -29 12 -44.5t41 -15.5q19 0 34 8.5t28 21.5t24 29t23 32l84 -68q-18 -29 -41 -56t-51.5 -47.5t-62 -33t-72.5 -12.5q-40 0 -68.5 10.5t-46.5 27.5t-26.5 40
t-8.5 48v23q-5 -5 -14.5 -13.5t-20 -18t-20.5 -18t-16 -13.5l-71 103q15 12 34 28.5t38 33.5t36 32t28 26v266q0 98 44.5 143t135.5 45zM345 639q-24 0 -38.5 -16t-14.5 -48v-192q18 17 36.5 39.5t34 48.5t25.5 53.5t10 54.5q0 28 -14 44t-39 16z" />
    <glyph glyph-name="trademark" unicode="&#x2122;" horiz-adv-x="887" 
d="M372 634h-121v-275h-106v275h-121v101h348v-101zM850 359h-105v125l-103 -130h-4l-102 130v-125h-105v383h2l207 -243l208 243h2v-383z" />
    <glyph glyph-name="uni2126" unicode="&#x2126;" horiz-adv-x="858" 
d="M431 750q78 0 140.5 -26t106.5 -71.5t68 -108.5t24 -137q0 -47 -9 -84.5t-22.5 -67.5t-30 -53t-30.5 -41h145v-161h-345v153q26 23 49 49t40 56.5t26.5 65.5t9.5 76q0 87 -45.5 138t-126.5 51t-127 -51t-46 -138q0 -41 10 -76t27 -65.5t40 -56.5t49 -49v-153h-345v161
h145q-14 18 -30.5 41t-30.5 53t-23 67.5t-9 84.5q0 74 24 137t68.5 108.5t107 71.5t140.5 26z" />
    <glyph glyph-name="estimated" unicode="&#x212e;" horiz-adv-x="591" 
d="M308 502q-31 0 -58.5 -7t-43.5 -18q-21 -10 -27.5 -27t-6.5 -33v-110h257v110q0 26 -5.5 41t-26.5 24q-16 9 -38 14.5t-51 5.5zM308 534q52 0 97.5 -16.5t79 -49t52.5 -81t19 -112.5h-384v-171q0 -18 6 -34.5t29 -27.5q17 -10 42.5 -16.5t58.5 -6.5q69 0 124 32.5
t93 92.5l27 -17q-42 -65 -103.5 -102.5t-140.5 -37.5q-58 0 -108 19.5t-86.5 55t-57.5 86t-21 112.5t21 112.5t57.5 86.5t86.5 55.5t108 19.5z" />
    <glyph glyph-name="partialdiff" unicode="&#x2202;" horiz-adv-x="548" 
d="M257 748q58 0 100 -19.5t71.5 -51.5t47 -74.5t27.5 -88.5t13.5 -93t3.5 -88q0 -61 -7.5 -111.5t-26.5 -92.5q-32 -71 -87 -104.5t-124 -33.5q-53 0 -98 17t-78 48.5t-51.5 75.5t-18.5 98t18 98t49.5 75.5t74.5 49t94 17.5q42 0 69 -15t39 -29q-2 87 -34 135.5t-93 48.5
q-40 0 -68.5 -19.5t-46.5 -48.5l-98 92q35 50 89.5 82t134.5 32zM277 338q-44 0 -71.5 -30t-27.5 -78t27.5 -77.5t71.5 -29.5q43 0 71 29.5t28 77.5t-28 78t-71 30z" />
    <glyph glyph-name="uni2206" unicode="&#x2206;" horiz-adv-x="721" 
d="M686 0h-651l326 646zM228 116h265l-132 264z" />
    <glyph glyph-name="product" unicode="&#x220f;" horiz-adv-x="706" 
d="M671 602h-103v-703h-137v703h-156v-703h-138v703h-102v138h636v-138z" />
    <glyph glyph-name="summation" unicode="&#x2211;" horiz-adv-x="610" 
d="M563 592h-319l149 -208l-158 -236h340v-148h-540v99l187 282l-184 260v99h525v-148z" />
    <glyph glyph-name="minus" unicode="&#x2212;" horiz-adv-x="512" 
d="M476 283h-440v134h440v-134z" />
    <glyph glyph-name="radical" unicode="&#x221a;" horiz-adv-x="697" 
d="M676 644l-306 -719l-170 320l-109 -66l-68 109l251 150l92 -191l186 450z" />
    <glyph glyph-name="infinity" unicode="&#x221e;" horiz-adv-x="768" 
d="M545 493q43 0 77.5 -15.5t59.5 -42t38.5 -62.5t13.5 -77t-13.5 -77t-38.5 -63t-59.5 -42.5t-77.5 -15.5q-27 0 -51 7.5t-44 19t-37 25.5t-32 28l-13 13l-13 -13q-29 -28 -64.5 -46.5t-79.5 -18.5q-41 0 -73 14t-54.5 38.5t-34.5 58t-12 71.5t12 71.5t34.5 58.5t54.5 39.5
t73 14.5q46 0 79.5 -20t63.5 -49l13 -13l9 11q34 35 73.5 60t95.5 25zM547 369q-28 0 -49 -17t-43 -42l-12 -15l13 -15q21 -22 42.5 -40t48.5 -18q30 0 47.5 21.5t17.5 52.5q0 30 -17.5 51.5t-47.5 21.5zM208 359q-26 0 -40.5 -19t-14.5 -45t14.5 -44.5t40.5 -18.5
q41 0 77 47l11 15l-12 13q-19 23 -37.5 37.5t-38.5 14.5z" />
    <glyph glyph-name="integral" unicode="&#x222b;" horiz-adv-x="434" 
d="M281 750q45 0 77 -7.5t52 -15.5l-26 -115q-17 6 -33.5 10t-34.5 4t-29 -12t-11 -38v-591q0 -97 -34 -136.5t-105 -39.5q-45 0 -77 7.5t-53 15.5l27 116q16 -7 33.5 -11t35.5 -4q19 0 30 12.5t11 39.5v591q0 96 33.5 135t103.5 39z" />
    <glyph glyph-name="approxequal" unicode="&#x2248;" horiz-adv-x="603" 
d="M201 328q39 0 66 -13t49 -28t42.5 -28t44.5 -13q38 0 61.5 21t35.5 50l84 -68q-26 -64 -73.5 -101t-107.5 -37q-41 0 -66.5 13t-45.5 28t-40 28t-50 13q-38 0 -61.5 -21t-35.5 -50l-84 68q26 64 73.5 101t107.5 37zM201 578q39 0 66 -12.5t49 -28t42.5 -28t44.5 -12.5
q38 0 61.5 21t35.5 50l84 -68q-26 -65 -73.5 -102t-107.5 -37q-41 0 -66.5 13t-45.5 28t-40 28t-50 13q-38 0 -61.5 -21t-35.5 -50l-84 68q26 65 73.5 101.5t107.5 36.5z" />
    <glyph glyph-name="notequal" unicode="&#x2260;" horiz-adv-x="512" 
d="M476 149h-230l-33 -94h-124l33 94h-86v134h134l47 130h-181v135h229l46 126h124l-46 -126h87v-135h-135l-47 -130h182v-134z" />
    <glyph glyph-name="lessequal" unicode="&#x2264;" horiz-adv-x="385" 
d="M199 457l169 -165h-185l-166 163v4l166 162h185zM368 108h-351v133h351v-133z" />
    <glyph glyph-name="greaterequal" unicode="&#x2265;" horiz-adv-x="385" 
d="M368 459v-4l-165 -163h-186l170 165l-170 164h186zM368 108h-351v133h351v-133z" />
    <glyph glyph-name="lozenge" unicode="&#x25ca;" horiz-adv-x="569" 
d="M544 336l-212 -401h-90l-212 401l212 402h90zM183 336l105 -188l104 188l-104 187z" />
    <glyph glyph-name="uniF6C3" unicode="&#xf6c3;" horiz-adv-x="199" 
d="M76 -45q39 0 64.5 -25.5t25.5 -64.5q0 -35 -18 -56l-104 -138h-4v278q18 6 36 6z" />
    <glyph glyph-name="germandbls.case" horiz-adv-x="688" 
d="M344 748q51 0 92 -10t75 -27.5t61.5 -41.5t51.5 -52l-111 -185q26 -9 52 -25t46.5 -40t33.5 -58.5t13 -80.5q0 -53 -18.5 -97t-53 -76t-83 -50t-108.5 -18q-45 0 -75.5 6.5t-52.5 17.5l35 135q17 -10 34.5 -15t46.5 -5q22 0 42.5 8t35.5 23t24 36t9 46q0 34 -14.5 56.5
t-40 35.5t-59 18.5t-70.5 5.5l-2 5l125 214q-15 14 -39.5 23.5t-57.5 9.5q-55 0 -87.5 -33.5t-32.5 -93.5v-480h-148v480q0 59 21 108.5t57.5 85t87 55t110.5 19.5z" />
    <glyph glyph-name="endash_greater.calt" horiz-adv-x="668" 
d="M634 275l-303 -273l-68 83l148 129h-377v120h379l-150 130l68 83z" />
    <glyph glyph-name="emdash_greater.calt" horiz-adv-x="988" 
d="M954 275l-303 -273l-68 83l148 129h-697v120h699l-150 130l68 83z" />
    <glyph glyph-name="less_endash.calt" horiz-adv-x="668" 
d="M405 464l-150 -130h379v-120h-377l148 -129l-68 -83l-303 273l303 272z" />
    <glyph glyph-name="less_emdash.calt" horiz-adv-x="988" 
d="M405 464l-150 -130h699v-120h-697l148 -129l-68 -83l-303 273l303 272z" />
    <glyph glyph-name="at.case" horiz-adv-x="878" 
d="M438 774q92 0 168 -29t130.5 -81.5t84.5 -126t30 -161.5q0 -50 -12.5 -92t-36 -72t-57.5 -47t-77 -17q-49 0 -80.5 19t-43.5 44l-2 4q-20 -26 -55.5 -46.5t-81.5 -20.5q-42 0 -76 16.5t-59 45.5t-38.5 69t-13.5 87q0 48 13.5 88t38.5 69t59 45.5t76 16.5q46 0 76.5 -15.5
t47.5 -38.5l6 46h111v-295q0 -19 8 -31t30 -12q35 0 53 37t18 100q0 68 -22 124.5t-63 97.5t-100 64t-132 23q-70 0 -128 -24t-99.5 -66t-64.5 -100.5t-23 -127.5t22.5 -127t63 -100t97 -65.5t124.5 -23.5q69 0 129 24l24 -84q-70 -29 -153 -29q-88 0 -162 30t-127.5 84
t-83.5 128t-30 163q0 88 30.5 162.5t85 129t130 85t165.5 30.5zM436 479q-42 0 -68 -30t-26 -83q0 -52 26 -82t68 -30q32 0 52.5 15t34.5 36v123q-14 20 -34.5 35.5t-52.5 15.5z" />
    <glyph glyph-name="glyph179" horiz-adv-x="334" 
d="M319 772h-142l-157 120h173z" />
    <glyph glyph-name="glyph180" horiz-adv-x="334" 
d="M157 772h-142l126 120h173z" />
    <glyph glyph-name="glyph181" horiz-adv-x="384" 
d="M366 772h-116l-58 49l-59 -49h-116l175 154z" />
    <glyph glyph-name="glyph182" horiz-adv-x="384" 
d="M192 761l-175 154h116l59 -49l58 49h116z" />
    <glyph glyph-name="glyph183" horiz-adv-x="387" 
d="M135 925q27 0 45 -11t31 -23.5t24 -23.5t25 -11q17 0 23.5 17t6.5 46h79q0 -38 -9.5 -66.5t-25.5 -47.5t-37.5 -28t-45.5 -9q-29 0 -45 11t-27.5 23.5t-22 23.5t-26.5 11q-20 0 -27 -16.5t-7 -46.5h-79q0 40 9.5 68.5t26 47t37.5 27t45 8.5z" />
    <glyph glyph-name="glyph184" horiz-adv-x="366" 
d="M87 906q31 0 50.5 -19.5t19.5 -50.5q0 -30 -19.5 -50t-50.5 -20t-50.5 20t-19.5 50q0 31 19.5 50.5t50.5 19.5zM279 906q30 0 50 -19.5t20 -50.5q0 -30 -20 -50t-50 -20q-31 0 -50.5 20t-19.5 50q0 31 19.5 50.5t50.5 19.5z" />
    <glyph glyph-name="glyph185" horiz-adv-x="309" 
d="M291 785h-274v98h274v-98z" />
    <glyph glyph-name="glyph186" horiz-adv-x="365" 
d="M348 931q0 -35 -12.5 -64.5t-34.5 -50.5t-52.5 -33t-65.5 -12q-36 0 -66 12t-52.5 33t-35 50.5t-12.5 64.5h100q0 -33 17.5 -55.5t48.5 -22.5q30 0 47.5 22.5t17.5 55.5h100v0z" />
    <glyph glyph-name="glyph187" horiz-adv-x="279" 
d="M140 1010q26 0 48 -9t38.5 -25.5t25.5 -38.5t9 -48q0 -53 -34.5 -86.5t-86.5 -33.5q-54 0 -88.5 33.5t-34.5 86.5q0 26 9 48t25.5 38.5t39 25.5t49.5 9zM140 933q-18 0 -30.5 -12.5t-12.5 -31.5t12.5 -31t30.5 -12q17 0 29 12t12 31t-12 31.5t-29 12.5z" />
    <glyph glyph-name="glyph188" horiz-adv-x="426" 
d="M156 773h-104l82 121h121zM343 773h-104l82 121h121z" />
    <glyph glyph-name="glyph189" horiz-adv-x="192" 
d="M96 926q35 0 57 -22t22 -57q0 -34 -22 -56t-57 -22t-57 22t-22 56q0 35 22 57t57 22z" />
    <glyph glyph-name="parenleft.case" horiz-adv-x="322" 
d="M305 710q-24 -30 -46.5 -64t-40 -75t-28 -91t-10.5 -113t10.5 -113t28 -91t40 -75t46.5 -64l-112 -78q-27 34 -54 75.5t-48.5 93.5t-35 114.5t-13.5 137.5t13.5 137.5t35 114.5t48.5 93.5t54 75.5z" />
    <glyph glyph-name="parenright.case" horiz-adv-x="322" 
d="M129 788q27 -34 54 -75.5t48.5 -93.5t35 -114.5t13.5 -137.5t-13.5 -137.5t-35 -114.5t-48.5 -93.5t-54 -75.5l-112 78q24 30 47 64t40 75t27.5 91t10.5 113t-10.5 113t-27.5 91t-40 75t-47 64l112 78v0z" />
    <glyph glyph-name="bracketleft.case" horiz-adv-x="333" 
d="M308 661h-114v-588h114v-116h-253v820h253v-116z" />
    <glyph glyph-name="bracketright.case" horiz-adv-x="336" 
d="M281 -43h-256v116h116v588h-116v116h256v-820z" />
    <glyph glyph-name="braceleft.case" horiz-adv-x="341" 
d="M316 661q-49 0 -75 -30t-11 -85l8 -39q10 -28 8.5 -51.5t-10 -41.5t-22.5 -30t-29 -17q15 -5 29 -17t22.5 -30t10 -41.5t-8.5 -51.5l-8 -39q-15 -55 11 -85t75 -30v-116q-68 0 -119 18.5t-81 52t-36.5 81t14.5 106.5l8 37q8 23 4 42t-16.5 33t-31 23.5t-38.5 14.5v4
q20 4 38.5 14t31 24t16.5 33t-4 42l-8 37q-21 58 -14.5 106t36.5 81.5t81 52t119 18.5v-116z" />
    <glyph glyph-name="braceright.case" horiz-adv-x="341" 
d="M25 777q68 0 119 -18.5t81 -52t37 -81.5t-14 -106l-9 -37q-8 -23 -4 -42t17 -33t31.5 -24t38.5 -14v-4q-20 -5 -38.5 -14.5t-31.5 -23.5t-17 -33t4 -42l9 -37q21 -59 14 -106.5t-37 -81t-81 -52t-119 -18.5v116q50 0 75.5 30t10.5 85l-8 39q-9 28 -8 51.5t9.5 41.5
t22.5 30t29 17q-15 5 -29 17t-22.5 30t-9.5 41.5t8 51.5l8 39q15 55 -10.5 85t-75.5 30v116v0z" />
    <glyph glyph-name="guilsinglleft.case" horiz-adv-x="394" 
d="M185 354l194 -222h-174l-190 220v4l190 220h174z" />
    <glyph glyph-name="guilsinglright.case" horiz-adv-x="394" 
d="M379 356v-4l-190 -220h-174l194 222l-194 222h174z" />
    <glyph glyph-name="guillemotleft.case" horiz-adv-x="554" 
d="M153 354l136 -222h-134l-140 220v4l140 220h134zM404 354l135 -222h-133l-140 220v4l140 220h133z" />
    <glyph glyph-name="guillemotright.case" horiz-adv-x="554" 
d="M289 356v-4l-141 -220h-133l135 222l-135 222h133zM539 356v-4l-140 -220h-133l135 222l-135 222h133z" />
    <glyph glyph-name="exclamdown.case" horiz-adv-x="294" 
d="M74 509h147v-509h-147v509zM147 576q-38 0 -62.5 24t-24.5 62t24.5 62t62.5 24t62 -24t24 -62t-24 -62t-62 -24z" />
    <glyph glyph-name="questiondown.case" horiz-adv-x="525" 
d="M269 -13q-53 0 -96.5 16.5t-75 45t-48.5 66.5t-17 82t12.5 73.5t30.5 51t40 37.5t40 33t30.5 38t12.5 53v26h147v-46q0 -41 -12 -69t-29.5 -48.5t-38.5 -36t-38.5 -31t-29.5 -34.5t-12 -45q0 -39 25 -59.5t61 -20.5q39 0 62.5 23t28.5 61l145 -24q-19 -91 -78.5 -141.5
t-159.5 -50.5zM271 576q-38 0 -62.5 24t-24.5 62t24.5 62t62.5 24t62 -24t24 -62t-24 -62t-62 -24z" />
    <glyph glyph-name="endash.case" horiz-adv-x="550" 
d="M512 289h-475v135h475v-135z" />
    <glyph glyph-name="periodcentered.case" horiz-adv-x="233" 
d="M117 444q38 0 63.5 -25.5t25.5 -63.5q0 -39 -25.5 -64t-63.5 -25q-39 0 -64.5 25t-25.5 64q0 38 25.5 63.5t64.5 25.5z" />
    <glyph glyph-name="emdash.case" horiz-adv-x="794" 
d="M757 289h-720v135h720v-135z" />
    <glyph glyph-name="hyphen.case" horiz-adv-x="431" 
d="M393 289h-356v135h356v-135z" />
    <glyph glyph-name="zero.dnom" horiz-adv-x="397" 
d="M199 426q75 0 118.5 -58.5t43.5 -157.5q0 -50 -11.5 -90t-32.5 -68.5t-51 -44t-67 -15.5q-76 0 -119.5 59t-43.5 159q0 99 43.5 157.5t119.5 58.5zM199 334q-30 0 -42.5 -33.5t-12.5 -90.5t12.5 -91t42.5 -34q29 0 42 34t13 91t-13 90.5t-42 33.5z" />
    <glyph glyph-name="one.dnom" horiz-adv-x="284" 
d="M225 0h-106v264l-55 -29l-43 98l202 94h2v-427z" />
    <glyph glyph-name="two.dnom" horiz-adv-x="359" 
d="M171 427q35 0 63 -10.5t48 -29t30.5 -44t10.5 -55.5q0 -32 -13 -58.5t-34 -53.5l-64 -83h113v-93h-290v3l151 226q17 22 23.5 34t6.5 28q0 19 -12.5 30.5t-32.5 11.5q-43 0 -51 -56l-96 22q12 66 49.5 97t97.5 31z" />
    <glyph glyph-name="three.dnom" horiz-adv-x="353" 
d="M173 427q33 0 60.5 -10.5t46.5 -28.5t29.5 -42.5t10.5 -52.5q0 -29 -12.5 -49t-32.5 -33q23 -12 37.5 -33t14.5 -52q0 -58 -41 -96t-111 -38q-60 0 -99 28t-52 94l96 21q8 -49 55 -49q20 0 32.5 12.5t12.5 32.5q0 19 -12.5 31.5t-33.5 12.5h-46v80h46q17 1 29 11t12 28
t-12.5 28.5t-31.5 10.5q-17 0 -29 -10t-16 -32l-92 39q14 48 49.5 72.5t89.5 24.5z" />
    <glyph glyph-name="four.dnom" horiz-adv-x="393" 
d="M324 123h44v-76h-44v-47h-105v47h-210v2l313 379h2v-305zM152 118h78v95z" />
    <glyph glyph-name="five.dnom" horiz-adv-x="369" 
d="M312 326h-151v-61q5 2 12 3t15 1q31 0 58.5 -7.5t48 -24.5t32.5 -43.5t12 -64.5q0 -62 -41 -99.5t-112 -37.5q-55 0 -95 23t-57 75l90 43q4 -25 19.5 -36t35.5 -11q23 0 38 13t15 36q0 21 -15 34.5t-40 13.5q-18 0 -30 -6t-18 -12l-74 32v222h257v-93z" />
    <glyph glyph-name="six.dnom" horiz-adv-x="380" 
d="M219 276q27 -5 50 -17t40.5 -30.5t27 -42t9.5 -51.5q0 -32 -12.5 -58t-34 -45t-50 -29.5t-60.5 -10.5t-60 10.5t-49 29.5t-33.5 45t-12.5 58q0 44 24 79l133 205h120zM189 192q-22 0 -36.5 -15t-14.5 -42q0 -26 14.5 -40t36.5 -14q23 0 38 14t15 40q0 27 -15 42t-38 15z
" />
    <glyph glyph-name="seven.dnom" horiz-adv-x="371" 
d="M353 415l-206 -415h-114l165 323h-166v96h321v-4z" />
    <glyph glyph-name="eight.dnom" horiz-adv-x="381" 
d="M189 427q29 0 55 -9.5t45.5 -26t30.5 -39.5t11 -50q0 -26 -11 -46t-30 -35q26 -18 41 -42t15 -52q0 -30 -12.5 -55t-34 -42.5t-50 -27.5t-60.5 -10t-60 10t-49 27.5t-33.5 42.5t-12.5 55q0 28 14.5 52t40.5 41q-19 16 -30 36t-11 46q0 27 11 50t30.5 39.5t45 26t54.5 9.5
zM189 175q-22 0 -37 -14t-15 -36q0 -21 15 -34t37 -13q23 0 38 13t15 34q0 22 -15 36t-38 14zM189 343q-20 0 -33.5 -13.5t-13.5 -33.5t13.5 -32t33.5 -12q21 0 34.5 12t13.5 32t-13.5 33.5t-34.5 13.5z" />
    <glyph glyph-name="nine.dnom" horiz-adv-x="380" 
d="M191 427q32 0 60 -10.5t49 -29.5t33.5 -45.5t12.5 -57.5q0 -44 -24 -79l-133 -205h-120l92 142q-27 4 -50 16.5t-40.5 31t-27 42.5t-9.5 52q0 31 12.5 57.5t34 45.5t50 29.5t60.5 10.5zM191 338q-23 0 -38 -14t-15 -40q0 -27 15 -42t38 -15q22 0 36.5 15t14.5 42
q0 26 -14.5 40t-36.5 14z" />
    <glyph glyph-name="zero.numr" horiz-adv-x="382" 
d="M199 740q75 0 118.5 -58.5t43.5 -157.5q0 -50 -11.5 -90t-32.5 -68.5t-51 -44t-67 -15.5q-76 0 -119.5 59t-43.5 159q0 99 43.5 157.5t119.5 58.5zM199 648q-30 0 -42.5 -33.5t-12.5 -90.5t12.5 -91t42.5 -34q29 0 42 34t13 91t-13 90.5t-42 33.5z" />
    <glyph glyph-name="one.numr" horiz-adv-x="269" 
d="M225 314h-106v264l-55 -29l-43 98l202 94h2v-427z" />
    <glyph glyph-name="two.numr" horiz-adv-x="344" 
d="M171 741q35 0 63 -10.5t48 -29t30.5 -44t10.5 -55.5q0 -32 -13 -58.5t-34 -53.5l-64 -83h113v-93h-290v3l151 226q17 22 23.5 34t6.5 28q0 19 -12.5 30.5t-32.5 11.5q-43 0 -51 -56l-96 22q12 66 49.5 97t97.5 31z" />
    <glyph glyph-name="three.numr" horiz-adv-x="337" 
d="M173 741q33 0 60.5 -10.5t46.5 -28.5t29.5 -42.5t10.5 -52.5q0 -29 -12.5 -49t-32.5 -33q23 -12 37.5 -33t14.5 -52q0 -58 -41 -96t-111 -38q-60 0 -99 28t-52 94l96 21q8 -49 55 -49q20 0 32.5 12.5t12.5 32.5q0 19 -12.5 31.5t-33.5 12.5h-46v80h46q17 1 29 11t12 28
t-12.5 28.5t-31.5 10.5q-17 0 -29 -10t-16 -32l-92 39q14 48 49.5 72.5t89.5 24.5z" />
    <glyph glyph-name="four.numr" horiz-adv-x="377" 
d="M324 437h44v-76h-44v-47h-105v47h-210v2l313 379h2v-305zM152 432h78v95z" />
    <glyph glyph-name="five.numr" horiz-adv-x="354" 
d="M312 640h-151v-61q5 2 12 3t15 1q31 0 58.5 -7.5t48 -24.5t32.5 -43.5t12 -64.5q0 -62 -41 -99.5t-112 -37.5q-55 0 -95 23t-57 75l90 43q4 -25 19.5 -36t35.5 -11q23 0 38 13t15 36q0 21 -15 34.5t-40 13.5q-18 0 -30 -6t-18 -12l-74 32v222h257v-93z" />
    <glyph glyph-name="six.numr" horiz-adv-x="365" 
d="M219 590q27 -5 50 -17t40.5 -30.5t27 -42t9.5 -51.5q0 -32 -12.5 -58t-34 -45t-50 -29.5t-60.5 -10.5t-60 10.5t-49 29.5t-33.5 45t-12.5 58q0 44 24 79l133 205h120zM189 506q-22 0 -36.5 -15t-14.5 -42q0 -26 14.5 -40t36.5 -14q23 0 38 14t15 40q0 27 -15 42t-38 15z
" />
    <glyph glyph-name="seven.numr" horiz-adv-x="355" 
d="M353 729l-206 -415h-114l165 323h-166v96h321v-4z" />
    <glyph glyph-name="eight.numr" horiz-adv-x="365" 
d="M189 741q29 0 55 -9.5t45.5 -26t30.5 -39.5t11 -50q0 -26 -11 -46t-30 -35q26 -18 41 -42t15 -52q0 -30 -12.5 -55t-34 -42.5t-50 -27.5t-60.5 -10t-60 10t-49 27.5t-33.5 42.5t-12.5 55q0 28 14.5 52t40.5 41q-19 16 -30 36t-11 46q0 27 11 50t30.5 39.5t45 26t54.5 9.5
zM189 489q-22 0 -37 -14t-15 -36q0 -21 15 -34t37 -13q23 0 38 13t15 34q0 22 -15 36t-38 14zM189 657q-20 0 -33.5 -13.5t-13.5 -33.5t13.5 -32t33.5 -12q21 0 34.5 12t13.5 32t-13.5 33.5t-34.5 13.5z" />
    <glyph glyph-name="nine.numr" horiz-adv-x="365" 
d="M191 741q32 0 60 -10.5t49 -29.5t33.5 -45.5t12.5 -57.5q0 -44 -24 -79l-133 -205h-120l92 142q-27 4 -50 16.5t-40.5 31t-27 42.5t-9.5 52q0 31 12.5 57.5t34 45.5t50 29.5t60.5 10.5zM191 652q-23 0 -38 -14t-15 -40q0 -27 15 -42t38 -15q22 0 36.5 15t14.5 42
q0 26 -14.5 40t-36.5 14z" />
    <glyph glyph-name="zero.inferior" horiz-adv-x="382" 
d="M199 326q75 0 118.5 -58.5t43.5 -157.5q0 -50 -11.5 -90t-32.5 -68.5t-51 -44t-67 -15.5q-76 0 -119.5 59t-43.5 159q0 99 43.5 157.5t119.5 58.5zM199 234q-30 0 -42.5 -33.5t-12.5 -90.5t12.5 -91t42.5 -34q29 0 42 34t13 91t-13 90.5t-42 33.5z" />
    <glyph glyph-name="one.inferior" horiz-adv-x="269" 
d="M225 -100h-106v264l-55 -29l-43 98l202 94h2v-427z" />
    <glyph glyph-name="two.inferior" horiz-adv-x="344" 
d="M171 327q35 0 63 -10.5t48 -29t30.5 -44t10.5 -55.5q0 -32 -13 -58.5t-34 -53.5l-64 -83h113v-93h-290v3l151 226q17 22 23.5 34t6.5 28q0 19 -12.5 30.5t-32.5 11.5q-43 0 -51 -56l-96 22q12 66 49.5 97t97.5 31z" />
    <glyph glyph-name="three.inferior" horiz-adv-x="337" 
d="M173 327q33 0 60.5 -10.5t46.5 -28.5t29.5 -42.5t10.5 -52.5q0 -29 -12.5 -49t-32.5 -33q23 -12 37.5 -33t14.5 -52q0 -58 -41 -96t-111 -38q-60 0 -99 28t-52 94l96 21q8 -49 55 -49q20 0 32.5 12.5t12.5 32.5q0 19 -12.5 31.5t-33.5 12.5h-46v80h46q17 1 29 11t12 28
t-12.5 28.5t-31.5 10.5q-17 0 -29 -10t-16 -32l-92 39q14 48 49.5 72.5t89.5 24.5z" />
    <glyph glyph-name="four.inferior" horiz-adv-x="377" 
d="M324 23h44v-76h-44v-47h-105v47h-210v2l313 379h2v-305zM152 18h78v95z" />
    <glyph glyph-name="five.inferior" horiz-adv-x="354" 
d="M312 226h-151v-61q5 2 12 3t15 1q31 0 58.5 -7.5t48 -24.5t32.5 -43.5t12 -64.5q0 -62 -41 -99.5t-112 -37.5q-55 0 -95 23t-57 75l90 43q4 -25 19.5 -36t35.5 -11q23 0 38 13t15 36q0 21 -15 34.5t-40 13.5q-18 0 -30 -6t-18 -12l-74 32v222h257v-93z" />
    <glyph glyph-name="six.inferior" horiz-adv-x="365" 
d="M219 176q27 -5 50 -17t40.5 -30.5t27 -42t9.5 -51.5q0 -32 -12.5 -58t-34 -45t-50 -29.5t-60.5 -10.5t-60 10.5t-49 29.5t-33.5 45t-12.5 58q0 44 24 79l133 205h120zM189 92q-22 0 -36.5 -15t-14.5 -42q0 -26 14.5 -40t36.5 -14q23 0 38 14t15 40q0 27 -15 42t-38 15z
" />
    <glyph glyph-name="seven.inferior" horiz-adv-x="355" 
d="M353 315l-206 -415h-114l165 323h-166v96h321v-4z" />
    <glyph glyph-name="eight.inferior" horiz-adv-x="365" 
d="M189 327q29 0 55 -9.5t45.5 -26t30.5 -39.5t11 -50q0 -26 -11 -46t-30 -35q26 -18 41 -42t15 -52q0 -30 -12.5 -55t-34 -42.5t-50 -27.5t-60.5 -10t-60 10t-49 27.5t-33.5 42.5t-12.5 55q0 28 14.5 52t40.5 41q-19 16 -30 36t-11 46q0 27 11 50t30.5 39.5t45 26t54.5 9.5
zM189 75q-22 0 -37 -14t-15 -36q0 -21 15 -34t37 -13q23 0 38 13t15 34q0 22 -15 36t-38 14zM189 243q-20 0 -33.5 -13.5t-13.5 -33.5t13.5 -32t33.5 -12q21 0 34.5 12t13.5 32t-13.5 33.5t-34.5 13.5z" />
    <glyph glyph-name="nine.inferior" horiz-adv-x="365" 
d="M191 327q32 0 60 -10.5t49 -29.5t33.5 -45.5t12.5 -57.5q0 -44 -24 -79l-133 -205h-120l92 142q-27 4 -50 16.5t-40.5 31t-27 42.5t-9.5 52q0 31 12.5 57.5t34 45.5t50 29.5t60.5 10.5zM191 238q-23 0 -38 -14t-15 -40q0 -27 15 -42t38 -15q22 0 36.5 15t14.5 42
q0 26 -14.5 40t-36.5 14z" />
    <glyph glyph-name="zero.tnum" horiz-adv-x="600" 
d="M300 748q62 0 111.5 -27t84 -76.5t52.5 -119.5t18 -157t-18 -157.5t-52.5 -120t-84 -76.5t-111.5 -27t-111.5 27t-84 76.5t-52.5 120t-18 157.5t18 157t52.5 119.5t84 76.5t111.5 27zM300 618q-30 0 -52 -18t-36.5 -51t-21 -79t-6.5 -102q0 -57 6.5 -103t21 -79t36.5 -51
t52 -18t52 18t36.5 51t21 79t6.5 103q0 56 -6.5 102t-21 79t-36.5 51t-52 18z" />
    <glyph glyph-name="one.tnum" horiz-adv-x="600" 
d="M399 134h123v-134h-405v134h135v370l-145 -74l-62 134l350 184h4v-614z" />
    <glyph glyph-name="two.tnum" horiz-adv-x="600" 
d="M289 748q55 0 99.5 -17.5t76.5 -48t49.5 -73t17.5 -93.5q0 -62 -23 -110.5t-60 -99.5l-130 -174h218v-132h-468v6l257 375q15 22 26 39.5t17.5 33.5t9.5 31.5t3 34.5q0 45 -26 70.5t-67 25.5q-86 0 -102 -109l-134 31q20 106 79.5 158t156.5 52z" />
    <glyph glyph-name="three.tnum" horiz-adv-x="600" 
d="M297 748q53 0 96.5 -17t74 -47t47 -70.5t16.5 -88.5q0 -56 -23.5 -92t-60.5 -57q45 -21 72.5 -61t27.5 -99q0 -50 -17 -92t-49 -72.5t-77 -47.5t-101 -17q-199 0 -247 206l134 32q11 -51 37.5 -78.5t74.5 -27.5q43 0 70 27t27 74q0 44 -28.5 72t-73.5 28h-78v113h79
q35 2 60.5 24.5t25.5 66.5q0 43 -25 67.5t-63 24.5q-37 0 -62 -22.5t-35 -67.5l-128 54q24 78 81 123t145 45z" />
    <glyph glyph-name="four.tnum" horiz-adv-x="600" 
d="M490 220h82v-112h-82v-108h-148v108h-328v4l471 633h5v-525zM223 217h131v178z" />
    <glyph glyph-name="five.tnum" horiz-adv-x="600" 
d="M510 603h-264v-153q26 13 64 13q51 0 95.5 -14.5t78 -44t52.5 -74.5t19 -107q0 -51 -17 -94.5t-49 -75t-77.5 -49t-102.5 -17.5q-93 0 -156 40.5t-91 124.5l126 60q10 -47 38.5 -70t72.5 -23q47 0 77 30.5t30 80.5t-30 81t-81 31q-33 0 -57.5 -12t-38.5 -25l-100 43v387
h411v-132z" />
    <glyph glyph-name="six.tnum" horiz-adv-x="600" 
d="M323 481q48 -5 90 -25t72.5 -52.5t48.5 -75.5t18 -94q0 -54 -20 -99.5t-54.5 -78.5t-81 -51t-98.5 -18t-97.5 18t-80 51t-54.5 78.5t-20 99.5q0 44 13 81.5t36 68.5l220 351h168zM298 352q-44 0 -73 -32t-29 -86t29 -85.5t73 -31.5q45 0 74.5 31.5t29.5 85.5t-29.5 86
t-74.5 32z" />
    <glyph glyph-name="seven.tnum" horiz-adv-x="600" 
d="M579 729l-354 -729h-159l296 601h-304v134h521v-6z" />
    <glyph glyph-name="eight.tnum" horiz-adv-x="600" 
d="M299 748q46 0 87.5 -15.5t72.5 -43.5t49 -66t18 -84q0 -49 -21 -87t-56 -64q47 -28 75.5 -72.5t28.5 -98.5q0 -51 -20 -93.5t-54.5 -72.5t-81 -47t-98.5 -17t-97.5 17t-80 47t-54.5 72.5t-20 93.5q0 54 27.5 98.5t75.5 71.5q-35 26 -56 64t-21 88q0 46 18 84t48.5 66
t71.5 43.5t88 15.5zM299 318q-44 0 -73 -29t-29 -74t29 -73.5t73 -28.5q45 0 74.5 28.5t29.5 73.5t-29.5 74t-74.5 29zM299 623q-38 0 -63.5 -26t-25.5 -65q0 -41 25.5 -67t63.5 -26t64 26t26 67q0 39 -26 65t-64 26z" />
    <glyph glyph-name="nine.tnum" horiz-adv-x="600" 
d="M301 748q52 0 97.5 -18t80 -51t54.5 -78.5t20 -99.5q0 -44 -13.5 -81.5t-36.5 -68.5l-219 -351h-168l159 254q-48 4 -89.5 24.5t-72 53t-48.5 75.5t-18 94q0 54 20 99.5t54.5 78.5t81 51t98.5 18zM301 618q-45 0 -74.5 -31.5t-29.5 -85.5t29.5 -86t74.5 -32q44 0 73 32
t29 86t-29 85.5t-73 31.5z" />
    <glyph glyph-name="zero.oldstyle" horiz-adv-x="596" 
d="M298 570q58 0 107 -22t84 -60.5t55 -91.5t20 -116t-20 -116t-55.5 -92t-84 -60.5t-106.5 -21.5t-107 21.5t-84 60.5t-55 92t-20 116t20 116t55.5 91.5t84 60.5t106.5 22zM298 442q-26 0 -47.5 -12t-37 -33t-24.5 -51t-9 -66q0 -73 33 -117.5t85 -44.5q25 0 46.5 11.5
t37.5 33t24.5 51.5t8.5 66t-8.5 66t-24 51t-37 33t-47.5 12z" />
    <glyph glyph-name="one.oldstyle" horiz-adv-x="397" 
d="M325 0h-147v325l-108 -59l-60 136l311 168h4v-570z" />
    <glyph glyph-name="two.oldstyle" horiz-adv-x="534" 
d="M262 570q51 0 92.5 -16.5t71.5 -44.5t46 -64.5t16 -76.5q0 -36 -8 -63t-20.5 -49t-29.5 -39.5t-35 -35.5l-54 -49h161v-132h-451v6l196 205q22 22 39 40.5t28.5 35t17.5 33.5t6 38q0 38 -23.5 59t-60.5 21q-58 0 -82 -65l-123 60q58 137 213 137z" />
    <glyph glyph-name="three.oldstyle" horiz-adv-x="524" 
d="M259 570q53 0 96.5 -16.5t74 -45.5t47.5 -68.5t17 -85.5q0 -54 -24 -89.5t-61 -55.5q45 -20 72.5 -59.5t27.5 -96.5q0 -49 -17 -89.5t-49 -70t-77 -46t-101 -16.5q-199 0 -246 200l133 31q11 -49 37.5 -76t74.5 -27q44 0 70.5 26.5t26.5 71.5q0 43 -28.5 70t-73.5 27h-77
v111h78q35 1 61 23t26 64t-25.5 66t-63.5 24q-75 0 -97 -88l-128 52q24 76 81 120t145 44z" />
    <glyph glyph-name="four.oldstyle" horiz-adv-x="579" 
d="M473 61h83v-109h-83v-105h-147v105h-328v4l471 614h4v-509zM206 57h131v174z" />
    <glyph glyph-name="five.oldstyle" horiz-adv-x="547" 
d="M480 432h-264v-148q12 5 27.5 8.5t36.5 3.5q51 0 95.5 -14t77.5 -42.5t52 -72.5t19 -104q0 -50 -17 -92t-49 -72.5t-77.5 -47.5t-102.5 -17q-93 0 -155.5 39.5t-90.5 120.5l125 59q10 -46 38.5 -69t72.5 -23q47 0 77 30.5t30 78.5t-30 78t-80 30q-34 0 -58 -11.5
t-39 -24.5l-100 42v376h412v-128z" />
    <glyph glyph-name="six.oldstyle" horiz-adv-x="562" 
d="M305 466q48 -5 89.5 -24.5t72.5 -51t49 -73t18 -90.5q0 -53 -20 -97t-54.5 -76t-81 -49.5t-98.5 -17.5t-97.5 17.5t-80 49.5t-54.5 76t-20 97q0 41 12 76.5t34 64.5l223 345h168zM280 341q-44 0 -73 -31.5t-29 -82.5q0 -52 29 -83t73 -31q45 0 74.5 31t29.5 83
q0 51 -29.5 82.5t-74.5 31.5z" />
    <glyph glyph-name="seven.oldstyle" horiz-adv-x="548" 
d="M545 554l-354 -707h-159l295 582h-303v131h521v-6z" />
    <glyph glyph-name="eight.oldstyle" horiz-adv-x="562" 
d="M279 726q46 0 87.5 -15t72.5 -42t49 -64.5t18 -81.5q0 -48 -21.5 -85t-56.5 -62q48 -27 76.5 -70t28.5 -96q0 -49 -20 -90t-54.5 -70.5t-81 -46t-98.5 -16.5t-97.5 16.5t-80 46t-54.5 70.5t-20 90q0 53 27.5 96t74.5 69q-35 25 -55.5 62.5t-20.5 85.5q0 44 18 81.5
t48.5 64.5t71.5 42t88 15zM279 308q-44 0 -73 -28t-29 -72q0 -43 29 -71t73 -28q45 0 74.5 28t29.5 71q0 44 -29.5 72t-74.5 28zM279 604q-38 0 -64 -25.5t-26 -63.5q0 -39 26 -64.5t64 -25.5t64 25.5t26 64.5q0 19 -7 35.5t-19 28.5t-28.5 18.5t-35.5 6.5z" />
    <glyph glyph-name="nine.oldstyle" horiz-adv-x="562" 
d="M282 570q52 0 97.5 -17.5t80 -49.5t54.5 -76t20 -97q0 -41 -12.5 -76.5t-34.5 -64.5l-222 -345h-168l160 247q-48 4 -89.5 23.5t-72.5 51t-49 73.5t-18 91q0 53 20 97t54.5 76t81 49.5t98.5 17.5zM282 444q-45 0 -74.5 -31t-29.5 -83q0 -51 29.5 -82.5t74.5 -31.5
q44 0 73 31.5t29 82.5q0 52 -29 83t-73 31z" />
    <glyph glyph-name="a.superior" horiz-adv-x="440" 
d="M178 751q38 0 63 -13t39 -31l6 37h105v-356h-105l-6 37q-14 -18 -39 -31t-63 -13q-35 0 -63.5 14t-48.5 38.5t-31.5 58.5t-11.5 74t11.5 74t31.5 58.5t48.5 38.5t63.5 14zM210 649q-31 0 -50 -22t-19 -61t19 -61.5t50 -22.5q23 0 38 11.5t25 27.5v91q-10 15 -25 26
t-38 11z" />
    <glyph glyph-name="b.superior" horiz-adv-x="440" 
d="M166 715q13 14 35.5 25t59.5 11q35 0 63.5 -14t49 -38.5t32 -58.5t11.5 -74t-11.5 -74t-32 -58.5t-49 -38.5t-63.5 -14q-38 0 -63 13t-39 31l-5 -37h-105v532h117v-205zM230 649q-23 0 -38 -11t-26 -27v-90q11 -16 26 -27.5t38 -11.5q31 0 49.5 22.5t18.5 61.5t-18.5 61
t-49.5 22z" />
    <glyph glyph-name="c.superior" horiz-adv-x="373" 
d="M209 751q53 0 91.5 -22t63.5 -61l-86 -64q-11 20 -28 33t-40 13q-34 0 -51.5 -24.5t-17.5 -59.5t17.5 -59.5t51.5 -24.5q23 0 40.5 13t28.5 33l86 -63q-26 -40 -64 -62t-91 -22q-41 0 -75.5 14t-59 38.5t-38.5 58.5t-14 74t14 74t39 58.5t59 38.5t74 14z" />
    <glyph glyph-name="d.superior" horiz-adv-x="440" 
d="M391 388h-105l-6 37q-14 -18 -39 -31t-63 -13q-35 0 -63.5 14t-48.5 38.5t-31.5 58.5t-11.5 74t11.5 74t31.5 58.5t48.5 38.5t63.5 14q38 0 60.5 -11t34.5 -25v205h118v-532zM210 649q-31 0 -50 -22t-19 -61t19 -61.5t50 -22.5q23 0 38 11.5t25 27.5v90q-10 16 -25 27
t-38 11z" />
    <glyph glyph-name="e.superior" horiz-adv-x="401" 
d="M207 751q43 0 74.5 -14.5t52 -39.5t30.5 -57.5t10 -69.5v-32h-235q2 -29 20.5 -45t52.5 -16q23 0 41.5 9.5t29.5 24.5l81 -66q-29 -32 -66 -48t-88 -16q-42 0 -76.5 14t-59 38.5t-38 58.5t-13.5 74t13.5 73.5t37.5 58.5t58 39t75 14zM201 667q-28 0 -44 -17.5t-18 -43.5
h123q-2 26 -17 43.5t-44 17.5z" />
    <glyph glyph-name="f.superior" horiz-adv-x="290" 
d="M227 920q52 0 84 -21l-41 -94q-5 5 -14.5 9.5t-22.5 4.5q-39 0 -39 -46v-29h76v-99h-76v-257h-117v257h-61v99h61v23q0 67 40 110t110 43z" />
    <glyph glyph-name="g.superior" horiz-adv-x="441" 
d="M179 751q38 0 63 -12.5t38 -31.5l7 37h104v-339q0 -87 -53.5 -136t-144.5 -49q-63 0 -105.5 21.5t-73.5 56.5l76 76q19 -21 43 -37t59 -16q38 0 59.5 23.5t21.5 57.5v27q-11 -13 -34 -24t-60 -11q-35 0 -63.5 13.5t-49 37.5t-32 56.5t-11.5 70.5q0 39 11.5 72t32 56.5
t49 37t63.5 13.5zM210 650q-31 0 -49.5 -20t-18.5 -58q0 -37 18.5 -57.5t49.5 -20.5q23 0 38 11.5t25 26.5v81q-10 15 -25 26t-38 11z" />
    <glyph glyph-name="h.superior" horiz-adv-x="431" 
d="M166 715q14 15 36.5 25.5t53.5 10.5q66 0 99.5 -43t33.5 -117v-203h-118v197q0 25 -12 40.5t-35 15.5q-22 0 -36 -10.5t-22 -24.5v-218h-117v532h117v-205z" />
    <glyph glyph-name="i.superior" horiz-adv-x="216" 
d="M166 388h-117v356h117v-356zM108 923q29 0 47.5 -19t18.5 -49q0 -29 -18.5 -47.5t-47.5 -18.5t-48 18.5t-19 47.5q0 30 19 49t48 19z" />
    <glyph glyph-name="j.superior" horiz-adv-x="226" 
d="M176 377q0 -71 -48.5 -114t-132.5 -43v101q31 0 47.5 12.5t16.5 34.5v376h117v-367zM118 923q29 0 48 -19t19 -49q0 -29 -19 -47.5t-48 -18.5t-48 18.5t-19 47.5q0 30 19 49t48 19z" />
    <glyph glyph-name="k.superior" horiz-adv-x="425" 
d="M166 584l105 160h141l-109 -143l116 -213h-133l-60 112l-85 -112h-92v532h117v-336z" />
    <glyph glyph-name="l.superior" horiz-adv-x="216" 
d="M166 388h-117v532h117v-532z" />
    <glyph glyph-name="m.superior" horiz-adv-x="644" 
d="M258 751q35 0 61 -15t43 -42q19 26 46 41.5t67 15.5q63 0 95.5 -43t32.5 -117v-203h-117v197q0 25 -11.5 40.5t-34.5 15.5q-20 0 -33 -9.5t-22 -23.5v-220h-118v197q0 25 -11 40.5t-34 15.5q-20 0 -33.5 -10.5t-22.5 -24.5v-218h-117v356h105l5 -36q14 18 38 30.5
t61 12.5z" />
    <glyph glyph-name="o.superior" horiz-adv-x="425" 
d="M212 751q41 0 75.5 -14t60 -39t40 -58.5t14.5 -73.5t-14.5 -74t-40 -58.5t-60 -38.5t-75.5 -14t-75.5 14t-60 38.5t-39.5 58.5t-14 74t14 73.5t39.5 58.5t60 39t75.5 14zM212 649q-31 0 -51 -23.5t-20 -59.5t20 -60t51 -24t51.5 24t20.5 60t-20.5 59.5t-51.5 23.5z" />
    <glyph glyph-name="p.superior" horiz-adv-x="440" 
d="M261 751q35 0 63.5 -14t49 -38.5t32 -58.5t11.5 -74t-11.5 -74t-32 -58.5t-49 -38.5t-63.5 -14q-37 0 -59.5 11t-35.5 25v-190h-117v517h105l5 -37q14 18 39 31t63 13zM230 650q-23 0 -38 -11.5t-26 -26.5v-91q11 -16 26 -27t38 -11q31 0 49.5 22t18.5 61q0 40 -18.5 62
t-49.5 22z" />
    <glyph glyph-name="q.superior" horiz-adv-x="440" 
d="M178 751q38 0 63 -13t39 -31l6 37h105v-517h-118v190q-12 -14 -34.5 -25t-60.5 -11q-35 0 -63.5 14t-48.5 38.5t-31.5 58.5t-11.5 74t11.5 74t31.5 58.5t48.5 38.5t63.5 14zM210 650q-31 0 -50 -22t-19 -62q0 -39 19 -61t50 -22q23 0 38 11t25 27v91q-10 15 -25 26.5
t-38 11.5z" />
    <glyph glyph-name="r.superior" horiz-adv-x="277" 
d="M262 635h-10q-31 0 -51.5 -12t-34.5 -29v-206h-117v356h104l7 -46q14 22 39.5 37.5t62.5 15.5v-116z" />
    <glyph glyph-name="s.superior" horiz-adv-x="344" 
d="M190 751q38 0 72 -10.5t55 -28.5l-44 -81q-14 12 -35.5 21.5t-47.5 9.5q-39 0 -39 -26q0 -11 13 -17.5t49 -15.5q54 -14 80 -37t26 -63q0 -55 -43 -88.5t-118 -33.5q-40 0 -77.5 12t-60.5 32l45 80q17 -14 41 -24.5t53 -10.5q43 0 43 26q0 13 -11.5 19.5t-43.5 14.5
q-57 15 -85 36.5t-28 63.5q0 55 40.5 88t115.5 33z" />
    <glyph glyph-name="t.superior" horiz-adv-x="313" 
d="M190 744h97v-99h-97v-117q0 -20 12 -31.5t32 -11.5q15 0 25.5 3t17.5 8l29 -92q-14 -9 -35 -16t-48 -7q-70 0 -110 38t-40 108v118h-62v99h62v117h117v-117z" />
    <glyph glyph-name="u.superior" horiz-adv-x="429" 
d="M380 388h-105l-5 35q-14 -18 -38 -30t-61 -12q-65 0 -97 43t-32 116v204h117v-197q0 -25 11.5 -40.5t34.5 -15.5t36 10.5t21 24.5v218h118v-356z" />
    <glyph glyph-name="v.superior" horiz-adv-x="420" 
d="M212 381h-3l-200 363h131l70 -150l71 150h131z" />
    <glyph glyph-name="w.superior" horiz-adv-x="554" 
d="M369 381h-3l-89 156l-91 -156h-2l-175 363h131l57 -147l79 147h2l78 -147l58 147h131z" />
    <glyph glyph-name="x.superior" horiz-adv-x="391" 
d="M274 567l112 -179h-138l-54 95l-54 -95h-137l110 179l-105 177h136l50 -94l50 94h136z" />
    <glyph glyph-name="y.superior" horiz-adv-x="423" 
d="M130 227h-134l153 264l-140 253h132l70 -150l71 150h132z" />
    <glyph glyph-name="z.superior" horiz-adv-x="352" 
d="M331 741l-135 -255h133v-98h-310v3l135 254h-126v99h303v-3z" />
    <glyph glyph-name="glyph495" horiz-adv-x="689" 
d="M345 785q67 0 124.5 -24.5t99.5 -67.5t66 -101.5t24 -127.5t-24 -128t-66 -101.5t-99.5 -66.5t-124.5 -24q-68 0 -125.5 24t-99.5 66.5t-65.5 101.5t-23.5 128t23.5 127.5t65.5 101.5t99.5 67.5t125.5 24.5zM345 711q-51 0 -94 -19t-73.5 -52.5t-48 -78.5t-17.5 -97
q0 -53 17.5 -98t48 -78t73.5 -51.5t94 -18.5q50 0 93 18.5t74 51.5t48.5 78t17.5 98q0 52 -17.5 97t-48.5 78.5t-74 52.5t-93 19z" />
    <glyph glyph-name="zero.zero" horiz-adv-x="595" 
d="M298 748q62 0 111.5 -27t83.5 -76.5t52 -119.5t18 -157t-18 -157.5t-52 -120t-83.5 -76.5t-111.5 -27q-63 0 -112 27t-83.5 76.5t-52.5 120t-18 157.5t18 157t52.5 119.5t83.5 76.5t112 27zM298 625q-30 0 -52 -18.5t-36.5 -52t-21 -81t-6.5 -105.5q0 -61 6 -107l179 326
q-27 38 -69 38zM413 368q0 55 -6 102l-179 -324q28 -37 70 -37q30 0 51.5 18.5t36 52.5t21 81.5t6.5 106.5z" />
    </font>
</defs>
</svg>
